<?xml version="1.0" standalone="no"?>
<!DOCTYPE svg PUBLIC "-//W3C//DTD SVG 1.1//EN" "http://www.w3.org/Graphics/SVG/1.1/DTD/svg11.dtd" >
<svg xmlns="http://www.w3.org/2000/svg">
<metadata>Generated by IcoMoon</metadata>
<defs>
<font id="icon" horiz-adv-x="1024">
<font-face units-per-em="1024" ascent="960" descent="-64" />
<missing-glyph horiz-adv-x="1024" />
<glyph unicode="&#x20;" horiz-adv-x="512" d="" />
<glyph unicode="&#xe900;" glyph-name="action" d="M0-15.36v926.72c0 26.863 21.777 48.64 48.64 48.64h5.12c26.863 0 48.64-21.777 48.64-48.64v-926.72c0-26.863-21.777-48.64-48.64-48.64h-5.12c-26.863 0-48.64 21.777-48.64 48.64zM921.6-12.8v921.6c0 28.277 22.923 51.2 51.2 51.2s51.2-22.923 51.2-51.2v-921.6c0-28.277-22.923-51.2-51.2-51.2s-51.2 22.923-51.2 51.2zM972.8 857.6h-921.6c-28.277 0-51.2 22.923-51.2 51.2s22.923 51.2 51.2 51.2h921.6c28.277 0 51.2-22.923 51.2-51.2s-22.923-51.2-51.2-51.2zM972.8-64h-921.6c-28.277 0-51.2 22.923-51.2 51.2s22.923 51.2 51.2 51.2h921.6c28.277 0 51.2-22.923 51.2-51.2s-22.923-51.2-51.2-51.2zM368.64 100.096c-119.948 0.302-217.068 97.609-217.068 217.599 0 59.957 24.249 114.249 63.474 153.607l-0.006-0.006 66.56 66.048c9.059 8.261 21.162 13.32 34.447 13.32 28.277 0 51.2-22.923 51.2-51.2 0-13.221-5.011-25.271-13.237-34.356l0.039 0.044-66.048-66.048c-20.867-20.867-33.773-49.694-33.773-81.536 0-63.684 51.626-115.309 115.309-115.309 31.842 0 60.669 12.906 81.536 33.773l68.864 68.864c9.059 8.261 21.162 13.32 34.447 13.32 28.277 0 51.2-22.923 51.2-51.2 0-13.221-5.011-25.271-13.237-34.356l0.039 0.044-69.12-69.12c-39.276-39.23-93.511-63.491-153.412-63.491-0.426 0-0.852 0.001-1.277 0.004h0.065zM710.4 371.2c-0.088-0.001-0.193-0.001-0.298-0.001-28.277 0-51.2 22.923-51.2 51.2 0 14.213 5.791 27.073 15.142 36.35l0.003 0.003 62.72 62.464c20.867 20.867 33.773 49.694 33.773 81.536 0 63.684-51.626 115.309-115.309 115.309-31.842 0-60.669-12.906-81.536-33.773v0l-61.696-61.44c-9.271-9.271-22.078-15.004-36.224-15.004-28.293 0-51.228 22.936-51.228 51.228 0 14.146 5.734 26.953 15.004 36.224v0l62.72 62.72c39.349 39.434 93.753 63.829 153.856 63.829 120.036 0 217.344-97.308 217.344-217.344 0-0.030 0-0.060 0-0.090v0.005c0.001-0.214 0.001-0.467 0.001-0.721 0-59.733-24.268-113.798-63.483-152.873l-62.726-62.726c-9.155-10.122-22.226-16.555-36.804-16.895l-0.060-0.001zM387.572 403.831l176.737 176.613c20.002 19.988 52.42 19.977 72.408-0.025s19.977-52.42-0.025-72.408l-176.737-176.613c-20.002-19.988-52.42-19.977-72.408 0.025s-19.977 52.42 0.025 72.408z" />
<glyph unicode="&#xe901;" glyph-name="add" d="M51.2 499.2h921.6c28.277 0 51.2-22.923 51.2-51.2s-22.923-51.2-51.2-51.2h-921.6c-28.277 0-51.2 22.923-51.2 51.2s22.923 51.2 51.2 51.2zM460.8-12.8v921.6c0 28.277 22.923 51.2 51.2 51.2s51.2-22.923 51.2-51.2v-921.6c0-28.277-22.923-51.2-51.2-51.2s-51.2 22.923-51.2 51.2z" />
<glyph unicode="&#xe902;" glyph-name="adiust" d="M51.2 755.2h136.96c21.861-59.908 78.346-101.906 144.64-101.906s122.778 41.998 144.299 100.839l0.341 1.067h495.36c28.277 0 51.2 22.923 51.2 51.2s-22.923 51.2-51.2 51.2v0h-495.36c-21.861 59.908-78.346 101.906-144.64 101.906s-122.778-41.998-144.299-100.839l-0.341-1.067h-136.96c-28.277 0-51.2-22.923-51.2-51.2s22.923-51.2 51.2-51.2v0zM972.8 499.2h-136.96c-21.861 59.908-78.346 101.906-144.64 101.906s-122.778-41.998-144.299-100.839l-0.341-1.067h-495.36c-28.277 0-51.2-22.923-51.2-51.2s22.923-51.2 51.2-51.2v0h495.36c21.861-59.908 78.346-101.906 144.64-101.906s122.778 41.998 144.299 100.839l0.341 1.067h136.96c28.277 0 51.2 22.923 51.2 51.2s-22.923 51.2-51.2 51.2v0zM972.8 140.8h-495.36c-21.861 59.908-78.346 101.906-144.64 101.906s-122.778-41.998-144.299-100.839l-0.341-1.067h-136.96c-28.277 0-51.2-22.923-51.2-51.2s22.923-51.2 51.2-51.2v0h136.96c21.861-59.908 78.346-101.906 144.64-101.906s122.778 41.998 144.299 100.839l0.341 1.067h495.36c28.277 0 51.2 22.923 51.2 51.2s-22.923 51.2-51.2 51.2v0z" />
<glyph unicode="&#xe903;" glyph-name="adjust" d="M874.165 810.165c-92.705 92.733-220.792 150.091-362.274 150.091-282.911 0-512.256-229.345-512.256-512.256s229.345-512.256 512.256-512.256c141.483 0 269.569 57.358 362.273 150.089l0.002 0.002c92.668 92.695 149.982 220.737 149.982 362.165s-57.314 269.471-149.983 362.167l0.002-0.002zM222.319 158.319l579.362 579.362c69.778-73.338 112.705-172.787 112.705-282.262 0-226.329-183.476-409.805-409.805-409.805-109.475 0-208.925 42.927-282.433 112.867l0.171-0.162z" />
<glyph unicode="&#xe904;" glyph-name="adown" d="M548.096 192l450.304 450.304c9.277 9.267 15.016 22.075 15.016 36.224s-5.739 26.957-15.016 36.224v0c-9.267 9.277-22.075 15.016-36.224 15.016s-26.957-5.739-36.224-15.016v0l-419.84-418.816-418.816 418.816c-9.267 9.277-22.075 15.016-36.224 15.016s-26.957-5.739-36.224-15.016v0c-9.277-9.267-15.016-22.075-15.016-36.224s5.739-26.957 15.016-36.224v0l449.024-450.304c9.237-9.104 21.928-14.726 35.932-14.726 2.224 0 4.414 0.142 6.563 0.417l-0.255-0.027c1.825-0.231 3.938-0.362 6.080-0.362 13.99 0 26.669 5.611 35.91 14.705l-0.007-0.007z" />
<glyph unicode="&#xe905;" glyph-name="align-bottom" d="M0 102.4c0 28.277 22.923 51.2 51.2 51.2h921.6c28.277 0 51.2-22.923 51.2-51.2s-22.923-51.2-51.2-51.2h-921.6c-28.277 0-51.2 22.923-51.2 51.2zM256 307.2v307.2c0 14.138 11.462 25.6 25.6 25.6h153.6c14.138 0 25.6-11.462 25.6-25.6v-307.2c0-14.138-11.462-25.6-25.6-25.6h-153.6c-14.138 0-25.6 11.462-25.6 25.6zM563.2 307.2v512c0 14.138 11.462 25.6 25.6 25.6h153.6c14.138 0 25.6-11.462 25.6-25.6v-512c0-14.138-11.462-25.6-25.6-25.6h-153.6c-14.138 0-25.6 11.462-25.6 25.6z" />
<glyph unicode="&#xe906;" glyph-name="align-horizontal-center" horiz-adv-x="563" d="M281.6-64c-28.277 0-51.2 22.923-51.2 51.2v921.6c0 28.277 22.923 51.2 51.2 51.2s51.2-22.923 51.2-51.2v-921.6c0-28.277-22.923-51.2-51.2-51.2zM435.2 499.2h-307.2c-14.138 0-25.6 11.462-25.6 25.6v153.6c0 14.138 11.462 25.6 25.6 25.6h307.2c14.138 0 25.6-11.462 25.6-25.6v-153.6c0-14.138-11.462-25.6-25.6-25.6zM537.6 192h-512c-14.138 0-25.6 11.462-25.6 25.6v153.6c0 14.138 11.462 25.6 25.6 25.6h512c14.138 0 25.6-11.462 25.6-25.6v-153.6c0-14.138-11.462-25.6-25.6-25.6z" />
<glyph unicode="&#xe907;" glyph-name="align-left" horiz-adv-x="794" d="M51.2 960c28.277 0 51.2-22.923 51.2-51.2v-921.6c0-28.277-22.923-51.2-51.2-51.2s-51.2 22.923-51.2 51.2v921.6c0 28.277 22.923 51.2 51.2 51.2zM256 704h307.2c14.138 0 25.6-11.462 25.6-25.6v-153.6c0-14.138-11.462-25.6-25.6-25.6h-307.2c-14.138 0-25.6 11.462-25.6 25.6v153.6c0 14.138 11.462 25.6 25.6 25.6zM256 396.8h512c14.138 0 25.6-11.462 25.6-25.6v-153.6c0-14.138-11.462-25.6-25.6-25.6h-512c-14.138 0-25.6 11.462-25.6 25.6v153.6c0 14.138 11.462 25.6 25.6 25.6z" />
<glyph unicode="&#xe908;" glyph-name="align-right" horiz-adv-x="794" d="M742.4-64c-28.277 0-51.2 22.923-51.2 51.2v921.6c0 28.277 22.923 51.2 51.2 51.2s51.2-22.923 51.2-51.2v-921.6c0-28.277-22.923-51.2-51.2-51.2zM537.6 499.2h-307.2c-14.138 0-25.6 11.462-25.6 25.6v153.6c0 14.138 11.462 25.6 25.6 25.6h307.2c14.138 0 25.6-11.462 25.6-25.6v-153.6c0-14.138-11.462-25.6-25.6-25.6zM537.6 192h-512c-14.138 0-25.6 11.462-25.6 25.6v153.6c0 14.138 11.462 25.6 25.6 25.6h512c14.138 0 25.6-11.462 25.6-25.6v-153.6c0-14.138-11.462-25.6-25.6-25.6z" />
<glyph unicode="&#xe909;" glyph-name="align-top" d="M1024 793.6c0-28.277-22.923-51.2-51.2-51.2h-921.6c-28.277 0-51.2 22.923-51.2 51.2s22.923 51.2 51.2 51.2h921.6c28.277 0 51.2-22.923 51.2-51.2zM768 588.8v-307.2c0-14.138-11.462-25.6-25.6-25.6h-153.6c-14.138 0-25.6 11.462-25.6 25.6v307.2c0 14.138 11.462 25.6 25.6 25.6h153.6c14.138 0 25.6-11.462 25.6-25.6zM460.8 588.8v-512c0-14.138-11.462-25.6-25.6-25.6h-153.6c-14.138 0-25.6 11.462-25.6 25.6v512c0 14.138 11.462 25.6 25.6 25.6h153.6c14.138 0 25.6-11.462 25.6-25.6z" />
<glyph unicode="&#xe90a;" glyph-name="align-vertical-center" d="M0 448c0 28.277 22.923 51.2 51.2 51.2h921.6c28.277 0 51.2-22.923 51.2-51.2s-22.923-51.2-51.2-51.2h-921.6c-28.277 0-51.2 22.923-51.2 51.2zM256 294.4v307.2c0 14.138 11.462 25.6 25.6 25.6h153.6c14.138 0 25.6-11.462 25.6-25.6v-307.2c0-14.138-11.462-25.6-25.6-25.6h-153.6c-14.138 0-25.6 11.462-25.6 25.6zM563.2 192v512c0 14.138 11.462 25.6 25.6 25.6h153.6c14.138 0 25.6-11.462 25.6-25.6v-512c0-14.138-11.462-25.6-25.6-25.6h-153.6c-14.138 0-25.6 11.462-25.6 25.6z" />
<glyph unicode="&#xe90b;" glyph-name="alipay" d="M1025.051 259.023v504.115c-0.149 108.757-88.348 196.864-197.125 196.864-0.277 0-0.554-0.001-0.831-0.002h-630.758c-108.438-0.447-196.188-88.382-196.337-196.848v-630.816c0-0.156-0.001-0.341-0.001-0.526 0-108.724 88.138-196.862 196.862-196.862 0 0 0 0 0.001 0h630.801c96.501 0.015 176.799 69.37 193.784 160.953l0.187 1.216c-52.567 22.604-278.604 120.115-396.616 176.624-89.626-108.813-183.984-173.996-325.125-173.996s-236.55 87.261-224.986 193.971c7.359 70.177 55.458 183.984 264.411 165.060 92.438-9.577 177.175-30.929 256.613-62.71l-6.395 2.258c21.853 40.254 41.101 87.089 55.258 136.084l1.251 5.058h-397.93v39.425h196.862v69.914h-240.23v43.368h240.23v102.242c1.555 9.168 9.438 16.061 18.931 16.061 0.368 0 0.733-0.010 1.095-0.031l-0.050 0.002h98.3v-118.275h256v-43.368h-256v-70.702h210.267c-19.764-80.641-48.916-151.589-86.954-216.711l2.059 3.816c60.715-21.815 336.953-105.133 336.953-105.133zM283.598 168.345c-149.815 0-173.47 94.357-165.322 134.045s50.99 90.415 134.308 90.415c104.372-2.042 201.928-29.345 287.391-76.016l-3.268 1.634c-72.279-94.094-160.854-150.078-253.109-150.078z" />
<glyph unicode="&#xe90c;" glyph-name="android" horiz-adv-x="855" d="M534.573-64c35.075 0.839 63.29 29.054 64.127 64.049l0.001 0.079v149.547h42.581c0.793-0.056 1.719-0.087 2.653-0.087 22.242 0 40.273 18.031 40.273 40.273 0 0.933-0.032 1.859-0.094 2.777l0.007-0.124v427.607h-513.026v-427.607c-0.055-0.789-0.086-1.709-0.086-2.636 0-22.242 18.031-40.273 40.273-40.273 0.843 0 1.679 0.026 2.509 0.077l-0.114-0.006h42.838v-149.547c0-35.417 28.711-64.128 64.128-64.128s64.128 28.711 64.128 64.128v0 149.547h85.675v-149.547c0.704-35.13 28.998-63.424 64.062-64.127l0.066-0.001zM791.086 192.513c35.13 0.704 63.424 28.998 64.127 64.062l0.001 0.066v299.351c0 35.417-28.711 64.128-64.128 64.128s-64.128-28.711-64.128-64.128v0-299.351c0.839-35.075 29.054-63.29 64.049-64.127l0.079-0.001zM64.128 192.513c35.075 0.839 63.29 29.054 64.127 64.049l0.001 0.079v299.351c-0.971 35.020-29.109 63.157-64.037 64.126l-0.091 0.002c-35.075-0.839-63.29-29.054-64.127-64.049l-0.001-0.079v-299.351c0.704-35.13 28.998-63.424 64.062-64.127l0.066-0.001zM632.818 953.587c-3.746 3.938-9.026 6.387-14.878 6.387s-11.131-2.449-14.87-6.379l-0.008-0.009-57.459-57.202-2.565-2.822c-32.326 16.201-70.434 25.686-110.758 25.686-1.463 0-2.922-0.012-4.379-0.037l0.219 0.003h-1.283c-1.198 0.021-2.611 0.032-4.027 0.032-40.281 0-78.348-9.484-112.088-26.341l1.453 0.657-2.565 2.822-57.459 57.202c-3.746 3.938-9.026 6.387-14.878 6.387s-11.131-2.449-14.87-6.379l-0.008-0.009c-4.006-3.713-6.506-9.004-6.506-14.878s2.499-11.165 6.493-14.866l0.013-0.012 55.407-55.663c-17.818-12.626-33.245-26.913-46.628-42.963l-0.314-0.387c-33.651-40.183-55.131-91.579-58.2-147.876l-0.028-0.645v-1.796c0-3.848 0-7.695 0-11.543h513.026c0 3.848 0 7.695 0 11.543v1.796c-3.097 56.942-24.577 108.338-58.551 148.917l0.323-0.396c-14.041 16.472-29.89 30.773-47.409 42.82l-0.816 0.53 55.407 55.663c3.434 3.659 5.544 8.597 5.544 14.028 0 6.3-2.839 11.938-7.308 15.702l-0.031 0.025zM320.641 737.603c-17.709 0-32.064 14.356-32.064 32.064s14.356 32.064 32.064 32.064c17.709 0 32.064-14.356 32.064-32.064v0c0-17.709-14.356-32.064-32.064-32.064v0zM534.573 737.603c-17.709 0-32.064 14.356-32.064 32.064s14.356 32.064 32.064 32.064c17.709 0 32.064-14.356 32.064-32.064v0c0-17.709-14.356-32.064-32.064-32.064v0z" />
<glyph unicode="&#xe90d;" glyph-name="anext" horiz-adv-x="557" d="M543.992 490.613l-455.658 454.363c-9.378 9.388-22.338 15.195-36.655 15.195s-27.277-5.807-36.654-15.194l-0.001-0.001c-9.388-9.378-15.195-22.338-15.195-36.655s5.807-27.277 15.194-36.654l423.797-423.797-423.796-423.537c-9.781-9.437-15.855-22.66-15.855-37.302s6.074-27.865 15.839-37.288l0.015-0.015c9.378-9.388 22.338-15.195 36.655-15.195s27.277 5.807 36.654 15.194l455.659 455.659c9.196 9.344 14.873 22.174 14.873 36.33 0 2.168-0.133 4.306-0.392 6.404l0.025-0.251c0.251 1.917 0.395 4.133 0.395 6.383 0 14.17-5.689 27.012-14.907 36.365l0.006-0.006z" />
<glyph unicode="&#xe90e;" glyph-name="apple" d="M793.731 411.766c1.113 82.902 45.275 155.248 111.106 195.82l1.008 0.578c-42.642 59.992-110.815 99.435-188.336 102.386l-0.448 0.014c-80.345 8.139-157.538-47.524-197.448-47.524s-105.026 46.211-170.404 44.898c-91.396-2.649-170.341-53.505-212.549-127.93l-0.653-1.252c-91.11-157.538-23.368-392.008 65.378-519.877 43.323-62.753 94.786-133.12 162.79-131.282s90.059 42.273 169.091 42.273 101.087-42.273 170.142-40.96 115.003 64.066 157.538 126.818c28.883 42.366 53.038 91.165 70.003 143.212l1.152 4.086c-81.835 35.537-138.088 115.533-138.371 208.702v0.036zM663.762 795.11c33.137 39.244 53.278 90.397 53.278 146.254 0 6.56-0.278 13.055-0.822 19.474l0.057-0.837c-60.942-6.24-114.098-35.351-151.519-78.483l-0.243-0.286c-33.055-37.62-53.225-87.268-53.225-141.627 0-6.155 0.259-12.25 0.766-18.274l-0.053 0.787c0.371-0.003 0.809-0.004 1.248-0.004 60.863 0 115.1 28.367 150.211 72.602l0.303 0.395z" />
<glyph unicode="&#xe90f;" glyph-name="aprev" horiz-adv-x="557" d="M15.025 490.613l454.104 454.363c9.378 9.388 22.338 15.195 36.655 15.195s27.277-5.807 36.654-15.194l0.001-0.001c9.388-9.378 15.195-22.338 15.195-36.655s-5.807-27.277-15.194-36.654l-423.538-423.797 423.537-423.537c9.658-9.495 15.643-22.7 15.643-37.302 0-28.883-23.414-52.297-52.297-52.297-14.281 0-27.224 5.724-36.662 15.002l0.007-0.007-454.104 455.658c-9.473 9.391-15.338 22.409-15.338 36.797 0 2.003 0.114 3.98 0.335 5.924l-0.022-0.238c-0.216 1.777-0.339 3.834-0.339 5.919 0 14.401 5.875 27.429 15.36 36.819l0.004 0.004z" />
<glyph unicode="&#xe910;" glyph-name="atop" d="M548.096 714.752l450.304-448.768c9.271-9.271 15.004-22.078 15.004-36.224 0-28.293-22.936-51.228-51.228-51.228-14.146 0-26.953 5.734-36.224 15.004v0l-419.84 418.56-418.816-418.56c-9.267-9.277-22.075-15.016-36.224-15.016s-26.957 5.739-36.224 15.016v0c-9.277 9.267-15.016 22.075-15.016 36.224s5.739 26.957 15.016 36.224l449.024 448.768c9.284 9.377 22.159 15.183 36.39 15.183 2.061 0 4.094-0.122 6.092-0.359l-0.242 0.023c1.686 0.197 3.64 0.309 5.62 0.309 14.218 0 27.083-5.796 36.361-15.154l0.004-0.004z" />
<glyph unicode="&#xe911;" glyph-name="background" d="M0-12.8v921.6c0 28.277 22.923 51.2 51.2 51.2s51.2-22.923 51.2-51.2v-921.6c0-28.277-22.923-51.2-51.2-51.2s-51.2 22.923-51.2 51.2zM921.6-12.8v921.6c0 28.277 22.923 51.2 51.2 51.2s51.2-22.923 51.2-51.2v-921.6c0-28.277-22.923-51.2-51.2-51.2s-51.2 22.923-51.2 51.2zM972.8 857.6h-921.6c-28.277 0-51.2 22.923-51.2 51.2s22.923 51.2 51.2 51.2h921.6c28.277 0 51.2-22.923 51.2-51.2s-22.923-51.2-51.2-51.2zM926.009-38.282l-904.011 904.011c-19.995 19.995-19.995 52.413 0 72.408s52.413 19.995 72.408 0l904.011-904.011c19.995-19.995 19.995-52.413 0-72.408s-52.413-19.995-72.408 0zM925.977 268.825l-588.313 588.313c-19.995 19.995-19.995 52.413 0 72.408s52.413 19.995 72.408 0l588.313-588.313c19.995-19.995 19.995-52.413 0-72.408s-52.413-19.995-72.408 0zM607.959-27.501l-582.339 582.339c-19.995 19.995-19.995 52.413 0 72.408s52.413 19.995 72.408 0l582.339-582.339c19.995-19.995 19.995-52.413 0-72.408s-52.413-19.995-72.408 0zM925.078 600.698l-260.849 260.849c-19.995 19.995-19.995 52.413 0 72.408s52.413 19.995 72.408 0l260.849-260.849c19.995-19.995 19.995-52.413 0-72.408s-52.413-19.995-72.408 0zM291.454-32.931l-267.366 267.366c-19.995 19.995-19.995 52.413 0 72.408s52.413 19.995 72.408 0l267.366-267.366c19.995-19.995 19.995-52.413 0-72.408s-52.413-19.995-72.408 0zM972.8-64h-921.6c-28.277 0-51.2 22.923-51.2 51.2s22.923 51.2 51.2 51.2h921.6c28.277 0 51.2-22.923 51.2-51.2s-22.923-51.2-51.2-51.2z" />
<glyph unicode="&#xe912;" glyph-name="bianhua" d="M908.209-11.487h-10.24v17.592c0.002 0.078 0.003 0.17 0.003 0.263 0 5.8-4.702 10.503-10.503 10.503-0.001 0-0.002 0-0.003 0h-126.031v851.758h126.031c5.8 0 10.503 4.702 10.503 10.503v0 17.592h10.24c9.716 0 17.592 7.876 17.592 17.592s-7.876 17.592-17.592 17.592v0h-10.24v17.592c0 5.8-4.702 10.503-10.503 10.503v0h-745.682c-5.8 0-10.503-4.702-10.503-10.503v0-17.592h-8.665c-9.716 0-17.592-7.876-17.592-17.592s7.876-17.592 17.592-17.592v0h8.665v-17.592c0-5.8 4.702-10.503 10.503-10.503h131.282v-853.858h-131.282c-0.001 0-0.002 0-0.003 0-5.8 0-10.503-4.702-10.503-10.503 0-0.092 0.001-0.184 0.004-0.276v0.014-15.491h-8.665c-0.644 0.084-1.389 0.131-2.145 0.131-9.716 0-17.592-7.876-17.592-17.592s7.876-17.592 17.592-17.592c0.756 0 1.501 0.048 2.232 0.14l-0.087-0.009h8.665v-17.592c0-5.8 4.702-10.503 10.503-10.503h745.682c5.8 0 10.503 4.702 10.503 10.503v0 17.592h10.24c0.644-0.084 1.389-0.131 2.145-0.131 9.716 0 17.592 7.876 17.592 17.592s-7.876 17.592-17.592 17.592c-0.756 0-1.501-0.048-2.232-0.14l0.087 0.009zM367.59 373.169c68.529 32.295 151.499 44.636 192.459 124.981 27.884 46.818 71.92 81.546 124.26 96.773l1.508 0.376c1.020 0.353 2.195 0.557 3.417 0.557 5.945 0 10.765-4.82 10.765-10.765 0-0.103-0.001-0.207-0.004-0.309v0.015-307.463c0.002-0.078 0.003-0.17 0.003-0.263 0-5.945-4.82-10.765-10.765-10.765-0.001 0-0.002 0-0.003 0h-353.149c-0.078-0.002-0.17-0.003-0.262-0.003-5.109 0-9.387 3.559-10.489 8.333l-0.014 0.073c-2.581 7.562-4.070 16.273-4.070 25.333 0 32.121 18.727 59.868 45.858 72.919l0.485 0.21zM341.333 547.774c0 37.123 30.094 67.216 67.216 67.216s67.216-30.094 67.216-67.216c0-37.123-30.094-67.216-67.216-67.216v0c-0.078 0-0.171-0.001-0.263-0.001-36.978 0-66.954 29.976-66.954 66.954 0 0.093 0 0.185 0.001 0.277v-0.014z" />
<glyph unicode="&#xe913;" glyph-name="big" d="M1007.976 24.133l-180.919 180.919c63.38 78.816 101.727 180.104 101.727 290.349 0 256.934-208.286 465.22-465.22 465.22s-465.22-208.286-465.22-465.22c0-256.934 208.286-465.22 465.22-465.22 110.245 0 211.533 38.347 291.253 102.43l-0.904-0.703 180.919-180.919c9.359-9.359 22.289-15.148 36.571-15.148 28.564 0 51.72 23.156 51.72 51.72 0 14.282-5.789 27.212-15.148 36.571v0zM465.22 132.943c-199.837 0-361.837 162-361.837 361.837s162 361.837 361.837 361.837c199.837 0 361.837-162 361.837-361.837v0c0-199.837-162-361.837-361.837-361.837v0zM620.293 443.089h-313.248c-28.548 0-51.691 23.143-51.691 51.691s23.143 51.691 51.691 51.691h313.248c28.548 0 51.691-23.143 51.691-51.691s-23.143-51.691-51.691-51.691zM515.36 651.404v-313.248c0-28.548-23.143-51.691-51.691-51.691s-51.691 23.143-51.691 51.691v313.248c0 28.548 23.143 51.691 51.691 51.691s51.691-23.143 51.691-51.691z" />
<glyph unicode="&#xe914;" glyph-name="bringForward" horiz-adv-x="665" d="M665.485-12.966c0-28.185-22.849-51.034-51.034-51.034h-563.417c-28.185 0-51.034 22.849-51.034 51.034s22.849 51.034 51.034 51.034h563.417c28.185 0 51.034-22.849 51.034-51.034zM106.725 751.954l193.063 193.063c19.93 19.93 52.243 19.93 72.173 0s19.93-52.243 0-72.173l-193.063-193.063c-19.93-19.93-52.243-19.93-72.173 0s-19.93 52.243 0 72.173zM504.125 679.806l-193.063 193.063c-19.93 19.93-19.93 52.243 0 72.173s52.243 19.93 72.173 0l193.063-193.063c19.93-19.93 19.93-52.243 0-72.173s-52.243-19.93-72.173 0zM290.384 293.239v612.41c0 28.185 22.849 51.034 51.034 51.034s51.034-22.849 51.034-51.034v-612.41c0-28.185-22.849-51.034-51.034-51.034s-51.034 22.849-51.034 51.034z" />
<glyph unicode="&#xe915;" glyph-name="bringToFront" d="M1024 908.8c0-28.277-22.923-51.2-51.2-51.2h-921.6c-28.277 0-51.2 22.923-51.2 51.2s22.923 51.2 51.2 51.2h921.6c28.277 0 51.2-22.923 51.2-51.2zM836.864-12.8c0-28.277-22.923-51.2-51.2-51.2h-565.248c-28.277 0-51.2 22.923-51.2 51.2s22.923 51.2 51.2 51.2h565.248c28.277 0 51.2-22.923 51.2-51.2zM276.475 473.128l193.691 193.691c19.995 19.995 52.413 19.995 72.408 0s19.995-52.413 0-72.408l-193.691-193.691c-19.995-19.995-52.413-19.995-72.408 0s-19.995 52.413 0 72.408zM675.112 400.81l-193.691 193.691c-19.995 19.995-19.995 52.413 0 72.408s52.413 19.995 72.408 0l193.691-193.691c19.995-19.995 19.995-52.413 0-72.408s-52.413-19.995-72.408 0zM460.8 261.632v365.568c0 28.277 22.923 51.2 51.2 51.2s51.2-22.923 51.2-51.2v-365.568c0-28.277-22.923-51.2-51.2-51.2s-51.2 22.923-51.2 51.2z" />
<glyph unicode="&#xe916;" glyph-name="caimo" horiz-adv-x="985" d="M0 427.324v0l258.455 532.676h98.471c40.168-0.112 72.688-32.7 72.688-72.884 0-11.566-2.694-22.503-7.489-32.217l0.19 0.427-113.72-234.677c-56.868-115.357-173.627-193.322-308.596-193.325v0zM305.753 212.030v0l258.455 532.418h109.068c36.412-0.17 65.864-29.728 65.864-66.164 0-10.333-2.368-20.112-6.592-28.825l0.172 0.394-118.373-243.982c-56.732-115.567-173.522-193.737-308.581-193.841h-0.014zM555.42-64v0l258.455 532.935h99.247c39.825-0.373 71.966-32.745 71.966-72.623 0-11.167-2.521-21.746-7.024-31.198l0.188 0.439-114.237-235.194c-56.596-115.777-173.418-194.153-308.568-194.358h-0.028z" />
<glyph unicode="&#xe917;" glyph-name="camera" d="M921.6-12.8v793.6c0 28.277 22.923 51.2 51.2 51.2s51.2-22.923 51.2-51.2v-793.6c0-28.277-22.923-51.2-51.2-51.2s-51.2 22.923-51.2 51.2zM0-12.8v793.6c0 28.277 22.923 51.2 51.2 51.2s51.2-22.923 51.2-51.2v-793.6c0-28.277-22.923-51.2-51.2-51.2s-51.2 22.923-51.2 51.2zM742.4 832h230.4c28.277 0 51.2-22.923 51.2-51.2s-22.923-51.2-51.2-51.2h-230.4c-28.277 0-51.2 22.923-51.2 51.2s22.923 51.2 51.2 51.2zM51.2 832h128c28.277 0 51.2-22.923 51.2-51.2s-22.923-51.2-51.2-51.2h-128c-28.277 0-51.2 22.923-51.2 51.2s22.923 51.2 51.2 51.2zM636.833 944.718l123.998-123.998c19.995-19.995 19.995-52.413 0-72.408s-52.413-19.995-72.408 0l-123.998 123.998c-19.995 19.995-19.995 52.413 0 72.408s52.413 19.995 72.408 0zM351.405 872.382l-123.998-123.998c-19.995-19.995-52.413-19.995-72.408 0s-19.995 52.413 0 72.408l123.998 123.998c19.995 19.995 52.413 19.995 72.408 0s19.995-52.413 0-72.408zM332.8 960h256c28.277 0 51.2-22.923 51.2-51.2s-22.923-51.2-51.2-51.2h-256c-28.277 0-51.2 22.923-51.2 51.2s22.923 51.2 51.2 51.2zM51.2 38.4h921.6c28.277 0 51.2-22.923 51.2-51.2s-22.923-51.2-51.2-51.2h-921.6c-28.277 0-51.2 22.923-51.2 51.2s22.923 51.2 51.2 51.2zM204.8 192h614.4c28.277 0 51.2-22.923 51.2-51.2s-22.923-51.2-51.2-51.2h-614.4c-28.277 0-51.2 22.923-51.2 51.2s22.923 51.2 51.2 51.2zM294.144 332.544c39.404-39.537 93.912-64 154.132-64 120.177 0 217.6 97.423 217.6 217.6s-97.423 217.6-217.6 217.6c-60.221 0-114.728-24.463-154.127-63.994l-0.006-0.006c-39.219-39.351-63.468-93.644-63.468-153.6s24.248-114.249 63.473-153.606l-0.006 0.006zM366.592 567.808c20.852 20.877 49.673 33.792 81.509 33.792 63.623 0 115.2-51.577 115.2-115.2s-51.577-115.2-115.2-115.2c-31.837 0-60.657 12.915-81.508 33.791l-0.001 0.001c-20.879 20.814-33.797 49.602-33.797 81.408s12.918 60.594 33.794 81.405l0.003 0.003zM868.352 596.992c0-35.063-28.425-63.488-63.488-63.488s-63.488 28.425-63.488 63.488c0 35.063 28.425 63.488 63.488 63.488s63.488-28.425 63.488-63.488z" />
<glyph unicode="&#xe918;" glyph-name="change" d="M737.237 290.532l193.691 193.691c19.995 19.995 52.413 19.995 72.408 0s19.995-52.413 0-72.408l-193.691-193.691c-19.995-19.995-52.413-19.995-72.408 0s-19.995 52.413 0 72.408zM809.875 689.114l193.691-193.691c19.995-19.995 19.995-52.413 0-72.408s-52.413-19.995-72.408 0l-193.691 193.691c-19.995 19.995-19.995 52.413 0 72.408s52.413 19.995 72.408 0zM349.44 504.832h614.4c28.277 0 51.2-22.923 51.2-51.2s-22.923-51.2-51.2-51.2h-614.4c-28.277 0-51.2 22.923-51.2 51.2s22.923 51.2 51.2 51.2zM208.529 218.209l-193.691 193.691c-19.995 19.995-19.995 52.413 0 72.408s52.413 19.995 72.408 0l193.691-193.691c19.995-19.995 19.995-52.413 0-72.408s-52.413-19.995-72.408 0zM281.167 616.673l-193.691-193.691c-19.995-19.995-52.413-19.995-72.408 0s-19.995 52.413 0 72.408l193.691 193.691c19.995 19.995 52.413 19.995 72.408 0s19.995-52.413 0-72.408zM668.928 402.432h-614.4c-28.277 0-51.2 22.923-51.2 51.2s22.923 51.2 51.2 51.2h614.4c28.277 0 51.2-22.923 51.2-51.2s-22.923-51.2-51.2-51.2z" />
<glyph unicode="&#xe919;" glyph-name="check" horiz-adv-x="1016" d="M988.264 474.095l-909.594 479.221c-3.687 1.804-7.98 3.31-12.468 4.299l-0.387 0.072c-4.505 1.505-9.691 2.373-15.080 2.373-6.707 0-13.099-1.345-18.923-3.779l0.324 0.12c-18.937-7.867-32.011-26.215-32.011-47.615 0-6.929 1.371-13.538 3.856-19.571l-0.125 0.342 345.018-921.42c7.922-18.815 26.208-31.785 47.522-31.785 26.735 0 48.704 20.404 51.185 46.489l0.016 0.207 79.442 418.29 433.715-29.823c0.34-0.008 0.742-0.013 1.144-0.013 24.577 0 45.127 17.243 50.212 40.292l0.063 0.341c1.798 5.020 2.838 10.812 2.838 16.846 0 19.351-10.689 36.204-26.485 44.979l-0.263 0.134zM491.818 506.746c-0.545 0.021-1.186 0.033-1.829 0.033-23.561 0-43.42-15.847-49.502-37.463l-0.087-0.362c-4.43-6.087-7.596-13.38-8.955-21.291l-0.043-0.305-51.419-269.176-233.44 623.193 591.313-311.596z" />
<glyph unicode="&#xe91a;" glyph-name="circle" d="M512-64c-282.77 0-512 229.23-512 512s229.23 512 512 512c282.77 0 512-229.23 512-512v0c0-282.77-229.23-512-512-512v0zM512 857.6c-226.216 0-409.6-183.384-409.6-409.6s183.384-409.6 409.6-409.6c226.216 0 409.6 183.384 409.6 409.6v0c0 226.216-183.384 409.6-409.6 409.6v0z" />
<glyph unicode="&#xe91b;" glyph-name="close" d="M933.702-48.706l-918.483 918.483c-20.608 20.608-20.608 54.020 0 74.628s54.020 20.608 74.628 0l918.483-918.483c20.608-20.608 20.608-54.020 0-74.628s-54.020-20.608-74.628 0zM1008.706 869.966l-918.483-918.483c-20.608-20.608-54.020-20.608-74.628 0s-20.608 54.020 0 74.628l918.483 918.483c20.608 20.608 54.020 20.608 74.628 0s20.608-54.020 0-74.628z" />
<glyph unicode="&#xe91c;" glyph-name="cloud-download" d="M768 704c0 141.385-114.615 256-256 256s-256-114.615-256-256v0c-141.385 0-256-114.615-256-256s114.615-256 256-256v0c28.277 0 51.2 22.923 51.2 51.2s-22.923 51.2-51.2 51.2v0c-84.831 0-153.6 68.769-153.6 153.6s68.769 153.6 153.6 153.6v0c16.178-0.001 31.765-2.529 46.389-7.21l-1.077 0.298c6.887-4.242 15.232-6.756 24.164-6.756 25.732 0 46.592 20.86 46.592 46.592 0 8.932-2.513 17.277-6.871 24.366l0.116-0.202c-4.383 13.547-6.911 29.134-6.912 45.311v0.001c0 84.831 68.769 153.6 153.6 153.6s153.6-68.769 153.6-153.6v0c-0.001-16.178-2.529-31.765-7.21-46.389l0.298 1.077c-4.242-6.887-6.756-15.232-6.756-24.164 0-25.732 20.86-46.592 46.592-46.592 8.932 0 17.277 2.513 24.366 6.871l-0.202-0.116c13.547 4.383 29.134 6.911 45.311 6.912h0.001c84.831 0 153.6-68.769 153.6-153.6s-68.769-153.6-153.6-153.6v0c-28.277 0-51.2-22.923-51.2-51.2s22.923-51.2 51.2-51.2v0c141.385 0 256 114.615 256 256s-114.615 256-256 256v0zM512 603.136c28.277 0 51.2-22.923 51.2-51.2v0-216.576l72.448 72.448c9.267 9.277 22.075 15.016 36.224 15.016s26.957-5.739 36.224-15.016v0c9.277-9.267 15.016-22.075 15.016-36.224s-5.739-26.957-15.016-36.224v0l-153.6-153.6c-9.327-9.667-22.395-15.67-36.866-15.67-1.984 0-3.941 0.113-5.866 0.332l0.235-0.022c-1.686-0.197-3.64-0.309-5.619-0.309-14.091 0-26.853 5.693-36.111 14.903l-153.598 153.598c-9.271 9.271-15.004 22.078-15.004 36.224 0 28.293 22.936 51.228 51.228 51.228 14.146 0 26.953-5.734 36.224-15.004v0l71.68-71.68v216.576c0 28.277 22.923 51.2 51.2 51.2v0zM819.2 38.4h-614.4c-28.277 0-51.2-22.923-51.2-51.2s22.923-51.2 51.2-51.2v0h614.4c28.277 0 51.2 22.923 51.2 51.2v0 0c0 28.277-22.923 51.2-51.2 51.2v0z" />
<glyph unicode="&#xe91d;" glyph-name="cloud-upload" d="M768 704c0 141.385-114.615 256-256 256s-256-114.615-256-256v0c-141.385 0-256-114.615-256-256s114.615-256 256-256v0c28.277 0 51.2 22.923 51.2 51.2s-22.923 51.2-51.2 51.2v0c-84.831 0-153.6 68.769-153.6 153.6s68.769 153.6 153.6 153.6v0c16.178-0.001 31.765-2.529 46.389-7.21l-1.077 0.298c6.887-4.242 15.232-6.756 24.164-6.756 25.732 0 46.592 20.86 46.592 46.592 0 8.932-2.513 17.277-6.871 24.366l0.116-0.202c-4.383 13.547-6.911 29.134-6.912 45.311v0.001c0 84.831 68.769 153.6 153.6 153.6s153.6-68.769 153.6-153.6v0c-0.001-16.178-2.529-31.765-7.21-46.389l0.298 1.077c-4.242-6.887-6.756-15.232-6.756-24.164 0-25.732 20.86-46.592 46.592-46.592 8.932 0 17.277 2.513 24.366 6.871l-0.202-0.116c13.547 4.383 29.134 6.911 45.311 6.912h0.001c84.831 0 153.6-68.769 153.6-153.6s-68.769-153.6-153.6-153.6v0c-28.277 0-51.2-22.923-51.2-51.2s22.923-51.2 51.2-51.2v0c141.385 0 256 114.615 256 256s-114.615 256-256 256v0zM512 166.4c28.277 0 51.2 22.923 51.2 51.2v0 216.576l72.448-72.704c9.267-9.277 22.075-15.016 36.224-15.016s26.957 5.739 36.224 15.016v0c9.277 9.267 15.016 22.075 15.016 36.224s-5.739 26.957-15.016 36.224v0l-153.6 153.6c-9.216 8.986-21.826 14.529-35.731 14.529-2.386 0-4.733-0.163-7.032-0.479l0.267 0.030c-1.686 0.197-3.64 0.309-5.619 0.309-14.091 0-26.853-5.693-36.111-14.903l-153.598-153.598c-9.271-9.271-15.004-22.078-15.004-36.224 0-28.293 22.936-51.228 51.228-51.228 14.146 0 26.953 5.734 36.224 15.004v0l71.68 73.216v-216.576c0-28.277 22.923-51.2 51.2-51.2v0zM819.2 38.4h-614.4c-28.277 0-51.2-22.923-51.2-51.2s22.923-51.2 51.2-51.2v0h614.4c28.277 0 51.2 22.923 51.2 51.2v0 0c0 28.277-22.923 51.2-51.2 51.2v0z" />
<glyph unicode="&#xe91e;" glyph-name="color" d="M512-64c-282.499 0.358-511.371 229.451-511.371 512 0 282.77 229.23 512 512 512 65.768 0 128.64-12.4 186.405-34.991l-3.482 1.199c19.389-7.615 32.866-26.17 32.866-47.872 0-28.331-22.967-51.298-51.298-51.298-6.629 0-12.964 1.257-18.78 3.547l0.348-0.121c-43.524 17.197-93.942 27.167-146.688 27.167-226.216 0-409.6-183.384-409.6-409.6s183.384-409.6 409.6-409.6c226.205 0 409.582 183.366 409.6 409.567v0.002c0.001 0.358 0.002 0.782 0.002 1.207 0 21.808-1.769 43.202-5.173 64.047l0.307-2.278c-0.605 2.954-0.951 6.348-0.951 9.824 0 28.277 22.923 51.2 51.2 51.2 26.236 0 47.863-19.734 50.848-45.168l0.023-0.24c3.91-23.507 6.144-50.593 6.144-78.201 0-0.137 0-0.275 0-0.412v0.021c0-282.77-229.23-512-512-512v0zM543.712 500.954l354.074 354.074c19.995 19.995 52.413 19.995 72.408 0s19.995-52.413 0-72.408l-354.074-354.074c-19.995-19.995-52.413-19.995-72.408 0s-19.995 52.413 0 72.408zM614.4 742.4c0-35.346-28.654-64-64-64s-64 28.654-64 64c0 35.346 28.654 64 64 64s64-28.654 64-64zM435.2 678.4c0-42.415-34.385-76.8-76.8-76.8s-76.8 34.385-76.8 76.8c0 42.415 34.385 76.8 76.8 76.8s76.8-34.385 76.8-76.8zM281.6 550.4c0-28.277-22.923-51.2-51.2-51.2s-51.2 22.923-51.2 51.2c0 28.277 22.923 51.2 51.2 51.2s51.2-22.923 51.2-51.2zM256 371.2c0-28.277-22.923-51.2-51.2-51.2s-51.2 22.923-51.2 51.2c0 28.277 22.923 51.2 51.2 51.2s51.2-22.923 51.2-51.2zM819.2 320c0-28.277-22.923-51.2-51.2-51.2s-51.2 22.923-51.2 51.2c0 28.277 22.923 51.2 51.2 51.2s51.2-22.923 51.2-51.2zM638.72 181.504c0-37.184-30.144-67.328-67.328-67.328s-67.328 30.144-67.328 67.328c0 37.184 30.144 67.328 67.328 67.328s67.328-30.144 67.328-67.328zM256 281.344c134.912-11.264 86.528 132.096 211.456 133.376l54.016-45.056c13.568-162.816-185.6-199.168-265.472-88.32z" />
<glyph unicode="&#xe91f;" glyph-name="color-card" horiz-adv-x="1023" d="M414.234-12.825c0-28.122-22.798-50.92-50.92-50.92h-311.63c-28.122 0-50.92 22.798-50.92 50.92s22.798 50.92 50.92 50.92h311.63c28.122 0 50.92-22.798 50.92-50.92zM414.234 905.261c0-28.122-22.798-50.92-50.92-50.92h-311.63c-28.122 0-50.92 22.798-50.92 50.92s22.798 50.92 50.92 50.92h311.63c28.122 0 50.92-22.798 50.92-50.92zM51.684 956.181c28.122 0 50.92-22.798 50.92-50.92v-918.341c0-28.122-22.798-50.92-50.92-50.92s-50.92 22.798-50.92 50.92v918.341c0 28.122 22.798 50.92 50.92 50.92zM363.314 956.181c28.122 0 50.92-22.798 50.92-50.92v-918.341c0-28.122-22.798-50.92-50.92-50.92s-50.92 22.798-50.92 50.92v918.341c0 28.122 22.798 50.92 50.92 50.92zM969.261 351.252c28.122 0 50.92-22.798 50.92-50.92v-311.63c0-28.122-22.798-50.92-50.92-50.92s-50.92 22.798-50.92 50.92v311.63c0 28.122 22.798 50.92 50.92 50.92zM50.92 351.252c28.122 0 50.92-22.798 50.92-50.92v-311.63c0-28.122-22.798-50.92-50.92-50.92s-50.92 22.798-50.92 50.92v311.63c0 28.122 22.798 50.92 50.92 50.92zM0-11.298c0 28.122 22.798 50.92 50.92 50.92h918.341c28.122 0 50.92-22.798 50.92-50.92s-22.798-50.92-50.92-50.92h-918.341c-28.122 0-50.92 22.798-50.92 50.92zM0 300.078c0 28.122 22.798 50.92 50.92 50.92h918.341c28.122 0 50.92-22.798 50.92-50.92s-22.798-50.92-50.92-50.92h-918.341c-28.122 0-50.92 22.798-50.92 50.92zM716.11 945.191c19.885 19.885 52.126 19.885 72.012 0l220.356-220.356c19.885-19.885 19.885-52.126 0-72.012s-52.126-19.885-72.012 0l-220.356 220.356c-19.885 19.885-19.885 52.126 0 72.012zM563.061 279.663c-19.885 19.885-19.885 52.126 0 72.012l373.020 373.020c19.885 19.885 52.126 19.885 72.012 0s19.885-52.126 0-72.012l-373.020-373.020c-19.885-19.885-52.126-19.885-72.012 0zM342.833 500.072c-19.885 19.885-19.885 52.126 0 72.012l373.020 373.020c19.885 19.885 52.126 19.885 72.012 0s19.885-52.126 0-72.012l-373.020-373.020c-19.885-19.885-52.126-19.885-72.012 0z" />
<glyph unicode="&#xe920;" glyph-name="color-gradient" d="M51.877 960c28.228 0 51.111-22.883 51.111-51.111v-921.779c0-28.228-22.883-51.111-51.111-51.111s-51.111 22.883-51.111 51.111v921.779c0 28.228 22.883 51.111 51.111 51.111zM409.651 960c28.228 0 51.111-22.883 51.111-51.111v-921.779c0-28.228-22.883-51.111-51.111-51.111s-51.111 22.883-51.111 51.111v921.779c0 28.228 22.883 51.111 51.111 51.111zM626.104 960c28.228 0 51.111-22.883 51.111-51.111v-921.779c0-28.228-22.883-51.111-51.111-51.111s-51.111 22.883-51.111 51.111v921.779c0 28.228 22.883 51.111 51.111 51.111zM818.536 960c28.228 0 51.111-22.883 51.111-51.111v-921.779c0-28.228-22.883-51.111-51.111-51.111s-51.111 22.883-51.111 51.111v921.779c0 28.228 22.883 51.111 51.111 51.111zM0 908.889c0 28.228 22.883 51.111 51.111 51.111h921.779c28.228 0 51.111-22.883 51.111-51.111s-22.883-51.111-51.111-51.111h-921.779c-28.228 0-51.111 22.883-51.111 51.111zM0-11.101c0 28.228 22.883 51.111 51.111 51.111h921.779c28.228 0 51.111-22.883 51.111-51.111s-22.883-51.111-51.111-51.111h-921.779c-28.228 0-51.111 22.883-51.111 51.111zM971.867 960c28.228 0 51.111-22.883 51.111-51.111v-921.779c0-28.228-22.883-51.111-51.111-51.111s-51.111 22.883-51.111 51.111v921.779c0 28.228 22.883 51.111 51.111 51.111z" />
<glyph unicode="&#xe921;" glyph-name="computer" d="M921.6 960h-819.2c-56.554 0-102.4-45.846-102.4-102.4v0-563.2c0-56.554 45.846-102.4 102.4-102.4v0h217.6v-153.6h-115.2c-28.277 0-51.2-22.923-51.2-51.2s22.923-51.2 51.2-51.2v0h614.4c28.277 0 51.2 22.923 51.2 51.2s-22.923 51.2-51.2 51.2v0h-115.2v153.6h217.6c56.554 0 102.4 45.846 102.4 102.4v0 563.2c0 56.554-45.846 102.4-102.4 102.4v0zM160 857.6h704c25.873 0 46.848-20.975 46.848-46.848v0-337.152h-797.696v337.152c0 25.873 20.975 46.848 46.848 46.848v0zM601.6 38.4h-179.2v153.6h179.2zM864 294.4h-704c-25.815 0.144-46.704 21.033-46.848 46.834v29.966h797.696v-29.952c-0.144-25.815-21.033-46.704-46.834-46.848h-0.014z" />
<glyph unicode="&#xe922;" glyph-name="copy" d="M204.8-12.8v716.8c0 28.277 22.923 51.2 51.2 51.2s51.2-22.923 51.2-51.2v-716.8c0-28.277-22.923-51.2-51.2-51.2s-51.2 22.923-51.2 51.2zM0 192v716.8c0 28.277 22.923 51.2 51.2 51.2s51.2-22.923 51.2-51.2v-716.8c0-28.277-22.923-51.2-51.2-51.2s-51.2 22.923-51.2 51.2zM972.8 652.8h-716.8c-28.277 0-51.2 22.923-51.2 51.2s22.923 51.2 51.2 51.2h716.8c28.277 0 51.2-22.923 51.2-51.2s-22.923-51.2-51.2-51.2zM768 857.6h-716.8c-28.277 0-51.2 22.923-51.2 51.2s22.923 51.2 51.2 51.2h716.8c28.277 0 51.2-22.923 51.2-51.2s-22.923-51.2-51.2-51.2zM972.8-64h-716.8c-28.277 0-51.2 22.923-51.2 51.2s22.923 51.2 51.2 51.2h716.8c28.277 0 51.2-22.923 51.2-51.2s-22.923-51.2-51.2-51.2zM921.6-12.8v716.8c0 28.277 22.923 51.2 51.2 51.2s51.2-22.923 51.2-51.2v-716.8c0-28.277-22.923-51.2-51.2-51.2s-51.2 22.923-51.2 51.2z" />
<glyph unicode="&#xe923;" glyph-name="copy-box" horiz-adv-x="1022" d="M979.501 960c-1.588 0.128-3.437 0.201-5.304 0.201s-3.716-0.073-5.546-0.216l0.242 0.015h-620.92c-28.577 0-51.743-23.166-51.743-51.743v0-246.816h-244.487c-28.577 0-51.743-23.166-51.743-51.743v0-620.92c0-28.577 23.166-51.743 51.743-51.743v0h622.989c28.577 0 51.743 23.166 51.743 51.743v0 244.487h242.159c11.284 0.075 21.695 3.751 30.158 9.933l-0.147-0.102c13.938 9.395 22.992 25.11 23.026 42.942v622.218c0.005 0.265 0.008 0.578 0.008 0.892 0 25.195-18.007 46.184-41.853 50.799l-0.326 0.052zM622.989 39.487h-519.503v517.433h519.503zM674.733 660.406h-276.051v196.107h519.503v-519.761h-191.709v272.946c0 28.577-23.166 51.743-51.743 51.743v0z" />
<glyph unicode="&#xe924;" glyph-name="css" d="M51.2 960c28.277 0 51.2-22.923 51.2-51.2v-921.6c0-28.277-22.923-51.2-51.2-51.2s-51.2 22.923-51.2 51.2v921.6c0 28.277 22.923 51.2 51.2 51.2zM768 960c28.277 0 51.2-22.923 51.2-51.2v-435.2c0-28.277-22.923-51.2-51.2-51.2s-51.2 22.923-51.2 51.2v435.2c0 28.277 22.923 51.2 51.2 51.2zM972.8 524.8c28.277 0 51.2-22.923 51.2-51.2v-486.4c0-28.277-22.923-51.2-51.2-51.2s-51.2 22.923-51.2 51.2v486.4c0 28.277 22.923 51.2 51.2 51.2zM716.8 908.8c0 28.277 22.923 51.2 51.2 51.2h204.8c28.277 0 51.2-22.923 51.2-51.2s-22.923-51.2-51.2-51.2h-204.8c-28.277 0-51.2 22.923-51.2 51.2zM716.8 473.6c0 28.277 22.923 51.2 51.2 51.2h204.8c28.277 0 51.2-22.923 51.2-51.2s-22.923-51.2-51.2-51.2h-204.8c-28.277 0-51.2 22.923-51.2 51.2zM716.8-12.8c0 28.277 22.923 51.2 51.2 51.2h204.8c28.277 0 51.2-22.923 51.2-51.2s-22.923-51.2-51.2-51.2h-204.8c-28.277 0-51.2 22.923-51.2 51.2zM409.6 960c28.277 0 51.2-22.923 51.2-51.2v-435.2c0-28.277-22.923-51.2-51.2-51.2s-51.2 22.923-51.2 51.2v435.2c0 28.277 22.923 51.2 51.2 51.2zM614.4 524.8c28.277 0 51.2-22.923 51.2-51.2v-486.4c0-28.277-22.923-51.2-51.2-51.2s-51.2 22.923-51.2 51.2v486.4c0 28.277 22.923 51.2 51.2 51.2zM358.4 908.8c0 28.277 22.923 51.2 51.2 51.2h204.8c28.277 0 51.2-22.923 51.2-51.2s-22.923-51.2-51.2-51.2h-204.8c-28.277 0-51.2 22.923-51.2 51.2zM358.4 473.6c0 28.277 22.923 51.2 51.2 51.2h204.8c28.277 0 51.2-22.923 51.2-51.2s-22.923-51.2-51.2-51.2h-204.8c-28.277 0-51.2 22.923-51.2 51.2zM358.4-12.8c0 28.277 22.923 51.2 51.2 51.2h204.8c28.277 0 51.2-22.923 51.2-51.2s-22.923-51.2-51.2-51.2h-204.8c-28.277 0-51.2 22.923-51.2 51.2zM0 908.8c0 28.277 22.923 51.2 51.2 51.2h204.8c28.277 0 51.2-22.923 51.2-51.2s-22.923-51.2-51.2-51.2h-204.8c-28.277 0-51.2 22.923-51.2 51.2zM0-12.8c0 28.277 22.923 51.2 51.2 51.2h204.8c28.277 0 51.2-22.923 51.2-51.2s-22.923-51.2-51.2-51.2h-204.8c-28.277 0-51.2 22.923-51.2 51.2z" />
<glyph unicode="&#xe925;" glyph-name="cut" horiz-adv-x="1036" d="M375.873 312.391c-39.873 40.007-95.028 64.761-155.965 64.761-121.606 0-220.187-98.581-220.187-220.187s98.581-220.187 220.187-220.187c60.937 0 116.092 24.754 155.959 64.755l0.006 0.006c39.685 39.819 64.222 94.757 64.222 155.426s-24.537 115.607-64.228 155.432l0.006-0.006zM302.563 74.329c-21.1-21.126-50.263-34.194-82.478-34.194-64.38 0-116.57 52.19-116.57 116.57s52.19 116.57 116.57 116.57c32.215 0 61.378-13.068 82.477-34.193l0.001-0.001c21.282-21.086 34.459-50.322 34.459-82.635s-13.177-61.549-34.451-82.626l-0.009-0.009zM971.673 312.391c-39.873 40.007-95.028 64.761-155.965 64.761-121.606 0-220.187-98.581-220.187-220.187s98.581-220.187 220.187-220.187c60.937 0 116.092 24.754 155.959 64.755l0.006 0.006c39.685 39.819 64.222 94.757 64.222 155.426s-24.537 115.607-64.228 155.432l0.006-0.006zM898.364 74.329c-21.1-21.126-50.263-34.194-82.478-34.194-64.38 0-116.57 52.19-116.57 116.57s52.19 116.57 116.57 116.57c32.215 0 61.378-13.068 82.477-34.193l0.001-0.001c21.282-21.086 34.459-50.322 34.459-82.635s-13.177-61.549-34.451-82.626l-0.009-0.009zM472.774 334.564l-352.274 545.576c-15.521 24.038-8.617 56.106 15.421 71.627s56.106 8.617 71.627-15.421l352.274-545.576c15.521-24.038 8.617-56.106-15.421-71.627s-56.106-8.617-71.627 15.421zM482.319 391.342l350.688 545.515c15.451 24.035 47.461 30.994 71.496 15.543s30.994-47.461 15.543-71.496l-350.688-545.515c-15.451-24.035-47.461-30.994-71.496-15.543s-30.994 47.461-15.543 71.496z" />
<glyph unicode="&#xe926;" glyph-name="delete" d="M51.2 832h921.6c28.277 0 51.2-22.923 51.2-51.2s-22.923-51.2-51.2-51.2h-921.6c-28.277 0-51.2 22.923-51.2 51.2s22.923 51.2 51.2 51.2zM230.4 38.4h563.2c28.277 0 51.2-22.923 51.2-51.2s-22.923-51.2-51.2-51.2h-563.2c-28.277 0-51.2 22.923-51.2 51.2s22.923 51.2 51.2 51.2zM384 960h256c28.277 0 51.2-22.923 51.2-51.2s-22.923-51.2-51.2-51.2h-256c-28.277 0-51.2 22.923-51.2 51.2s22.923 51.2 51.2 51.2zM179.2-12.8v614.4c0 28.277 22.923 51.2 51.2 51.2s51.2-22.923 51.2-51.2v-614.4c0-28.277-22.923-51.2-51.2-51.2s-51.2 22.923-51.2 51.2zM358.4-12.8v460.8c0 28.277 22.923 51.2 51.2 51.2s51.2-22.923 51.2-51.2v-460.8c0-28.277-22.923-51.2-51.2-51.2s-51.2 22.923-51.2 51.2zM563.2-12.8v460.8c0 28.277 22.923 51.2 51.2 51.2s51.2-22.923 51.2-51.2v-460.8c0-28.277-22.923-51.2-51.2-51.2s-51.2 22.923-51.2 51.2zM742.4-12.8v614.4c0 28.277 22.923 51.2 51.2 51.2s51.2-22.923 51.2-51.2v-614.4c0-28.277-22.923-51.2-51.2-51.2s-51.2 22.923-51.2 51.2z" />
<glyph unicode="&#xe927;" glyph-name="down" horiz-adv-x="1012" d="M501.248-64c0.089-0.001 0.194-0.001 0.299-0.001 3.994 0 7.858 0.561 11.516 1.609l-0.294-0.072c13.8 0.204 26.247 5.836 35.331 14.851l-0.003-0.003 450.304 448.768c9.162 9.32 14.819 22.111 14.819 36.224 0 28.544-23.139 51.683-51.683 51.683-14.431 0-27.481-5.915-36.857-15.452l-372.231-372.231v807.424c0 28.277-22.923 51.2-51.2 51.2s-51.2-22.923-51.2-51.2v0-797.952l-362.752 362.752c-9.267 9.277-22.075 15.016-36.224 15.016s-26.957-5.739-36.224-15.016v0c-9.277-9.267-15.016-22.075-15.016-36.224s5.739-26.957 15.016-36.224l449.024-448.768s0 0 0 0c9.125-10.081 22.259-16.387 36.866-16.387 0.179 0 0.358 0.001 0.537 0.003h-0.027z" />
<glyph unicode="&#xe928;" glyph-name="download" horiz-adv-x="1021" d="M51.034 38.068h918.615c28.185 0 51.034-22.849 51.034-51.034s-22.849-51.034-51.034-51.034h-918.615c-28.185 0-51.034 22.849-51.034 51.034s22.849 51.034 51.034 51.034zM0-12.966v459.307c0 28.185 22.849 51.034 51.034 51.034s51.034-22.849 51.034-51.034v-459.307c0-28.185-22.849-51.034-51.034-51.034s-51.034 22.849-51.034 51.034zM347.972 471.233l193.063-193.063c19.93-19.93 19.93-52.243 0-72.173s-52.243-19.93-72.173 0l-193.063 193.063c-19.93 19.93-19.93 52.243 0 72.173s52.243 19.93 72.173 0zM745.063 399.040l-193.063-193.063c-19.93-19.93-52.243-19.93-72.173 0s-19.93 52.243 0 72.173l193.063 193.063c19.93 19.93 52.243 19.93 72.173 0s19.93-52.243 0-72.173zM918.615-12.966v459.307c0 28.185 22.849 51.034 51.034 51.034s51.034-22.849 51.034-51.034v-459.307c0-28.185-22.849-51.034-51.034-51.034s-51.034 22.849-51.034 51.034zM561.376 908.966v-663.444c0-28.185-22.849-51.034-51.034-51.034s-51.034 22.849-51.034 51.034v663.444c0 28.185 22.849 51.034 51.034 51.034s51.034-22.849 51.034-51.034z" />
<glyph unicode="&#xe929;" glyph-name="download2" d="M51.2 38.4h921.6c28.277 0 51.2-22.923 51.2-51.2s-22.923-51.2-51.2-51.2h-921.6c-28.277 0-51.2 22.923-51.2 51.2s22.923 51.2 51.2 51.2zM51.2 960h921.6c28.277 0 51.2-22.923 51.2-51.2s-22.923-51.2-51.2-51.2h-921.6c-28.277 0-51.2 22.923-51.2 51.2s22.923 51.2 51.2 51.2zM51.2 755.2h921.6c28.277 0 51.2-22.923 51.2-51.2s-22.923-51.2-51.2-51.2h-921.6c-28.277 0-51.2 22.923-51.2 51.2s22.923 51.2 51.2 51.2zM0-12.8v460.8c0 28.277 22.923 51.2 51.2 51.2s51.2-22.923 51.2-51.2v-460.8c0-28.277-22.923-51.2-51.2-51.2s-51.2 22.923-51.2 51.2zM921.6-12.8v460.8c0 28.277 22.923 51.2 51.2 51.2s51.2-22.923 51.2-51.2v-460.8c0-28.277-22.923-51.2-51.2-51.2s-51.2 22.923-51.2 51.2zM349.045 421.714l193.691-193.691c19.995-19.995 19.995-52.413 0-72.408s-52.413-19.995-72.408 0l-193.691 193.691c-19.995 19.995-19.995 52.413 0 72.408s52.413 19.995 72.408 0zM747.426 349.404l-193.691-193.691c-19.995-19.995-52.413-19.995-72.408 0s-19.995 52.413 0 72.408l193.691 193.691c19.995 19.995 52.413 19.995 72.408 0s19.995-52.413 0-72.408zM563.2 523.52v-333.824c0-27.994-22.694-50.688-50.688-50.688h-1.024c-27.994 0-50.688 22.694-50.688 50.688v333.824c0 27.994 22.694 50.688 50.688 50.688h1.024c27.994 0 50.688-22.694 50.688-50.688z" />
<glyph unicode="&#xe92a;" glyph-name="email" d="M0 89.6v716.8c0 28.277 22.923 51.2 51.2 51.2s51.2-22.923 51.2-51.2v-716.8c0-28.277-22.923-51.2-51.2-51.2s-51.2 22.923-51.2 51.2zM921.6 89.6v716.8c0 28.277 22.923 51.2 51.2 51.2s51.2-22.923 51.2-51.2v-716.8c0-28.277-22.923-51.2-51.2-51.2s-51.2 22.923-51.2 51.2zM972.8 755.2h-921.6c-28.277 0-51.2 22.923-51.2 51.2s22.923 51.2 51.2 51.2h921.6c28.277 0 51.2-22.923 51.2-51.2s-22.923-51.2-51.2-51.2zM972.8 38.4h-921.6c-28.277 0-51.2 22.923-51.2 51.2s22.923 51.2 51.2 51.2h921.6c28.277 0 51.2-22.923 51.2-51.2s-22.923-51.2-51.2-51.2zM477.718 307.23l-428.654 428.654c-19.995 19.995-19.995 52.413 0 72.408s52.413 19.995 72.408 0l428.654-428.654c19.995-19.995 19.995-52.413 0-72.408s-52.413-19.995-72.408 0zM478.703 379.835l428.654 428.654c19.995 19.995 52.413 19.995 72.408 0s19.995-52.413 0-72.408l-428.654-428.654c-19.995-19.995-52.413-19.995-72.408 0s-19.995 52.413 0 72.408z" />
<glyph unicode="&#xe92b;" glyph-name="eye" d="M623.023 562.257c-29.266 29.302-69.716 47.427-114.399 47.427-89.296 0-161.684-72.388-161.684-161.684s72.388-161.684 161.684-161.684c44.683 0 85.133 18.126 114.397 47.426l0.002 0.002c29.217 29.252 47.285 69.644 47.285 114.257s-18.068 85.005-47.287 114.259l0.002-0.002zM470.771 410.004c-9.74 9.751-15.764 23.216-15.764 38.088 0 29.765 24.129 53.895 53.895 53.895s53.895-24.129 53.895-53.895c0-14.872-6.024-28.337-15.765-38.089l0.001 0.001c-9.755-9.766-23.237-15.807-38.131-15.807s-28.375 6.041-38.13 15.806l-0.001 0.001zM948.817 582.737c-100.448 131.26-257.039 215.179-433.248 215.579h-0.066c-177.044 0-321.213-75.183-434.661-215.579s-104.825-146.055 0-279.175c100.502-131.33 257.208-215.269 433.533-215.579h0.051c175.217 5.093 330.169 87.658 432.454 214.477l0.86 1.102c86.232 112.64 107.251 146.594 1.078 279.175zM907.587 442.88c-72.193-146.727-220.623-245.916-392.219-245.916s-320.026 99.19-391.081 243.361l-1.138 2.555c72.193 146.727 220.623 245.916 392.219 245.916s320.026-99.19 391.081-243.361l1.138-2.555z" />
<glyph unicode="&#xe92c;" glyph-name="eye2" d="M948.817 592.438c-31.642 40.088-67.072 75.005-106.37 105.128l-1.42 1.045 21.288 21.288c9.766 9.755 15.807 23.237 15.807 38.131s-6.041 28.375-15.806 38.13l-0.001 0.001c-9.755 9.766-23.237 15.807-38.131 15.807s-28.375-6.041-38.13-15.806l-0.001-0.001-40.96-39.882c-66.731 32.316-145.136 51.203-227.952 51.203-0.576 0-1.152-0.001-1.728-0.003h0.089c-177.044 0-321.213-76.531-434.661-215.040s-104.825-146.594 0-279.714c32.642-40.714 69.217-76.177 109.743-106.673l1.55-1.117-35.84-37.726c-9.758-9.758-15.794-23.24-15.794-38.131 0-29.782 24.143-53.925 53.925-53.925 14.891 0 28.372 6.036 38.131 15.794l56.32 56.32c65.726-31.306 142.834-49.589 224.211-49.589 0.85 0 1.699 0.002 2.547 0.006h-0.131c175.217 5.093 330.169 87.658 432.454 214.477l0.86 1.102c85.154 111.832 106.173 146.055 0 279.175zM123.149 452.581c72.33 146.553 220.714 245.587 392.228 245.587 52.613 0 103.049-9.319 149.748-26.396l-3.029 0.969-390.737-390.737c-63.147 43.183-113.489 100.692-147.060 168.028l-1.15 2.549zM515.503 206.821c-51.269 0.009-100.461 8.892-146.126 25.198l3.036-0.946 389.928 389.928c61.763-42.916 111.057-99.633 144.098-165.877l1.149-2.544c-72.215-146.624-220.572-245.736-392.082-245.76h-0.003z" />
<glyph unicode="&#xe92d;" glyph-name="eye3" d="M515.072 396.8c-161.28 0-409.6 78.848-499.712 184.32-10.4 9.408-16.907 22.954-16.907 38.019 0 28.277 22.923 51.2 51.2 51.2 17.632 0 33.183-8.913 42.392-22.48l0.115-0.179c64-73.472 276.992-148.48 422.912-148.48s358.912 75.008 421.888 148.48c9.324 13.746 24.874 22.659 42.507 22.659 28.277 0 51.2-22.923 51.2-51.2 0-15.065-6.507-28.611-16.863-37.979l-0.044-0.039c-89.344-105.472-337.408-184.32-498.688-184.32zM195.961 440.354l-108.612-108.612c-19.995-19.995-52.413-19.995-72.408 0s-19.995 52.413 0 72.408l108.612 108.612c19.995 19.995 52.413 19.995 72.408 0s19.995-52.413 0-72.408zM433.559 403.135l-46.904-146.263c-8.635-26.926-37.463-41.755-64.389-33.12s-41.755 37.463-33.12 64.389l46.904 146.263c8.635 26.926 37.463 41.755 64.389 33.12s41.755-37.463 33.12-64.389zM906.652 512.955l108.612-108.612c19.995-19.995 19.995-52.413 0-72.408s-52.413-19.995-72.408 0l-108.612 108.612c-19.995 19.995-19.995 52.413 0 72.408s52.413 19.995 72.408 0zM688.907 434.136l46.904-146.263c8.635-26.926-6.194-55.754-33.12-64.389s-55.754 6.194-64.389 33.12l-46.904 146.263c-8.635 26.926 6.194 55.754 33.12 64.389s55.754-6.194 64.389-33.12z" />
<glyph unicode="&#xe92e;" glyph-name="favourite" d="M803.184-40.632c-8.931 0.005-17.34 2.24-24.7 6.177l0.282-0.138-262.564 137.846-262.564-137.846c-7.061-3.769-15.442-5.982-24.341-5.982-29.002 0-52.513 23.511-52.513 52.513 0 3.040 0.258 6.020 0.754 8.919l-0.044-0.311 50.675 292.234-212.414 206.901c-9.765 9.544-15.82 22.848-15.82 37.567 0 26.339 19.391 48.149 44.677 51.932l0.288 0.035 293.284 42.535 131.282 265.977c8.754 17.528 26.561 29.354 47.13 29.354s38.376-11.826 46.993-29.050l0.138-0.304 131.282-265.977 293.284-42.535c25.574-3.819 44.965-25.629 44.965-51.968 0-14.718-6.055-28.023-15.811-37.557l-0.010-0.010-212.152-206.901 50.15-292.234c0.458-2.606 0.721-5.607 0.721-8.67 0-29.002-23.511-52.513-52.513-52.513-0.253 0-0.506 0.002-0.759 0.005h0.038zM516.464 215.106c8.931-0.005 17.34-2.24 24.7-6.177l-0.282 0.138 192.722-102.4-36.759 214.515c-0.651 3.102-1.024 6.666-1.024 10.318 0 14.801 6.124 28.173 15.976 37.718l0.014 0.013 155.963 151.762-215.303 32.033c-17.061 2.027-31.435 11.972-39.512 26.002l-0.135 0.255-96.361 196.398-96.361-196.398c-8.163-14.221-22.427-24.147-39.128-26.23l-0.257-0.026-215.303-31.508 155.701-152.287c9.852-9.557 15.966-22.918 15.966-37.708 0-3.097-0.268-6.13-0.782-9.080l0.045 0.314-36.759-216.090 192.459 101.35c7.006 4.147 15.375 6.735 24.319 7.086l0.1 0.003z" />
<glyph unicode="&#xe92f;" glyph-name="favourites" d="M1030.564 573.506c-6.287 18.867-22.48 32.779-42.251 35.675l-0.285 0.034-293.284 42.535-131.282 265.977c-8.754 17.528-26.561 29.354-47.13 29.354s-38.376-11.826-46.993-29.050l-0.138-0.304-131.282-265.977-293.022-42.535c-25.574-3.819-44.965-25.629-44.965-51.968 0-14.718 6.055-28.023 15.811-37.557l212.424-206.91-50.15-292.234c-0.452-2.588-0.71-5.568-0.71-8.608 0-29.002 23.511-52.513 52.513-52.513 8.899 0 17.281 2.213 24.625 6.12l-0.284-0.138 262.564 137.846 262.564-137.846c7.079-3.799 15.487-6.034 24.417-6.039h0.002c0.214-0.003 0.467-0.005 0.721-0.005 29.002 0 52.513 23.511 52.513 52.513 0 3.062-0.262 6.063-0.765 8.982l0.045-0.312-51.2 292.234 212.152 206.901c9.833 9.554 15.935 22.904 15.935 37.678 0 5.771-0.931 11.324-2.651 16.518l0.106-0.371z" />
<glyph unicode="&#xe930;" glyph-name="file" d="M51.2 38.4h921.6c28.277 0 51.2-22.923 51.2-51.2s-22.923-51.2-51.2-51.2h-921.6c-28.277 0-51.2 22.923-51.2 51.2s22.923 51.2 51.2 51.2zM691.2 960h281.6c28.277 0 51.2-22.923 51.2-51.2s-22.923-51.2-51.2-51.2h-281.6c-28.277 0-51.2 22.923-51.2 51.2s22.923 51.2 51.2 51.2zM51.2 960h384c28.277 0 51.2-22.923 51.2-51.2s-22.923-51.2-51.2-51.2h-384c-28.277 0-51.2 22.923-51.2 51.2s22.923 51.2 51.2 51.2zM51.2 755.2h435.2c28.277 0 51.2-22.923 51.2-51.2s-22.923-51.2-51.2-51.2h-435.2c-28.277 0-51.2 22.923-51.2 51.2s22.923 51.2 51.2 51.2zM453.828 743.938l194.777 194.777c19.995 19.995 52.413 19.995 72.408 0s19.995-52.413 0-72.408l-194.777-194.777c-19.995-19.995-52.413-19.995-72.408 0s-19.995 52.413 0 72.408zM0-12.8v716.8c0 28.277 22.923 51.2 51.2 51.2s51.2-22.923 51.2-51.2v-716.8c0-28.277-22.923-51.2-51.2-51.2s-51.2 22.923-51.2 51.2zM921.6-12.8v921.6c0 28.277 22.923 51.2 51.2 51.2s51.2-22.923 51.2-51.2v-921.6c0-28.277-22.923-51.2-51.2-51.2s-51.2 22.923-51.2 51.2z" />
<glyph unicode="&#xe931;" glyph-name="file-in" d="M51.2 38.4h921.6c28.277 0 51.2-22.923 51.2-51.2s-22.923-51.2-51.2-51.2h-921.6c-28.277 0-51.2 22.923-51.2 51.2s22.923 51.2 51.2 51.2zM691.2 960h281.6c28.277 0 51.2-22.923 51.2-51.2s-22.923-51.2-51.2-51.2h-281.6c-28.277 0-51.2 22.923-51.2 51.2s22.923 51.2 51.2 51.2zM51.2 960h384c28.277 0 51.2-22.923 51.2-51.2s-22.923-51.2-51.2-51.2h-384c-28.277 0-51.2 22.923-51.2 51.2s22.923 51.2 51.2 51.2zM51.2 755.2h435.2c28.277 0 51.2-22.923 51.2-51.2s-22.923-51.2-51.2-51.2h-435.2c-28.277 0-51.2 22.923-51.2 51.2s22.923 51.2 51.2 51.2zM453.828 743.938l194.777 194.777c19.995 19.995 52.413 19.995 72.408 0s19.995-52.413 0-72.408l-194.777-194.777c-19.995-19.995-52.413-19.995-72.408 0s-19.995 52.413 0 72.408zM0-12.8v716.8c0 28.277 22.923 51.2 51.2 51.2s51.2-22.923 51.2-51.2v-716.8c0-28.277-22.923-51.2-51.2-51.2s-51.2 22.923-51.2 51.2zM921.6 704v204.8c0 28.277 22.923 51.2 51.2 51.2s51.2-22.923 51.2-51.2v-204.8c0-28.277-22.923-51.2-51.2-51.2s-51.2 22.923-51.2 51.2zM921.6-12.8v204.8c0 28.277 22.923 51.2 51.2 51.2s51.2-22.923 51.2-51.2v-204.8c0-28.277-22.923-51.2-51.2-51.2s-51.2 22.923-51.2 51.2zM972.8 396.8h-358.4c-28.277 0-51.2 22.923-51.2 51.2s22.923 51.2 51.2 51.2h358.4c28.277 0 51.2-22.923 51.2-51.2s-22.923-51.2-51.2-51.2zM579.142 485l100.647 100.647c19.995 19.995 52.413 19.995 72.408 0s19.995-52.413 0-72.408l-100.647-100.647c-19.995-19.995-52.413-19.995-72.408 0s-19.995 52.413 0 72.408zM679.76 310.302l-100.647 100.647c-19.995 19.995-19.995 52.413 0 72.408s52.413 19.995 72.408 0l100.647-100.647c19.995-19.995 19.995-52.413 0-72.408s-52.413-19.995-72.408 0z" />
<glyph unicode="&#xe932;" glyph-name="file-open" d="M51.2 38.4h921.6c28.277 0 51.2-22.923 51.2-51.2s-22.923-51.2-51.2-51.2h-921.6c-28.277 0-51.2 22.923-51.2 51.2s22.923 51.2 51.2 51.2zM691.2 755.2h281.6c28.277 0 51.2-22.923 51.2-51.2s-22.923-51.2-51.2-51.2h-281.6c-28.277 0-51.2 22.923-51.2 51.2s22.923 51.2 51.2 51.2zM51.2 960h921.6c28.277 0 51.2-22.923 51.2-51.2s-22.923-51.2-51.2-51.2h-921.6c-28.277 0-51.2 22.923-51.2 51.2s22.923 51.2 51.2 51.2zM51.2 652.8h537.6c28.277 0 51.2-22.923 51.2-51.2s-22.923-51.2-51.2-51.2h-537.6c-28.277 0-51.2 22.923-51.2 51.2s22.923 51.2 51.2 51.2zM550.458 640.003l98.293 98.293c19.995 19.995 52.413 19.995 72.408 0s19.995-52.413 0-72.408l-98.293-98.293c-19.995-19.995-52.413-19.995-72.408 0s-19.995 52.413 0 72.408zM0-12.8v614.4c0 28.277 22.923 51.2 51.2 51.2s51.2-22.923 51.2-51.2v-614.4c0-28.277-22.923-51.2-51.2-51.2s-51.2 22.923-51.2 51.2zM921.6-12.8v716.8c0 28.277 22.923 51.2 51.2 51.2s51.2-22.923 51.2-51.2v-716.8c0-28.277-22.923-51.2-51.2-51.2s-51.2 22.923-51.2 51.2z" />
<glyph unicode="&#xe933;" glyph-name="file-out" d="M51.2 38.4h921.6c28.277 0 51.2-22.923 51.2-51.2s-22.923-51.2-51.2-51.2h-921.6c-28.277 0-51.2 22.923-51.2 51.2s22.923 51.2 51.2 51.2zM691.2 960h281.6c28.277 0 51.2-22.923 51.2-51.2s-22.923-51.2-51.2-51.2h-281.6c-28.277 0-51.2 22.923-51.2 51.2s22.923 51.2 51.2 51.2zM51.2 960h384c28.277 0 51.2-22.923 51.2-51.2s-22.923-51.2-51.2-51.2h-384c-28.277 0-51.2 22.923-51.2 51.2s22.923 51.2 51.2 51.2zM51.2 755.2h435.2c28.277 0 51.2-22.923 51.2-51.2s-22.923-51.2-51.2-51.2h-435.2c-28.277 0-51.2 22.923-51.2 51.2s22.923 51.2 51.2 51.2zM453.828 743.938l194.777 194.777c19.995 19.995 52.413 19.995 72.408 0s19.995-52.413 0-72.408l-194.777-194.777c-19.995-19.995-52.413-19.995-72.408 0s-19.995 52.413 0 72.408zM0-12.8v716.8c0 28.277 22.923 51.2 51.2 51.2s51.2-22.923 51.2-51.2v-716.8c0-28.277-22.923-51.2-51.2-51.2s-51.2 22.923-51.2 51.2zM921.6 704v204.8c0 28.277 22.923 51.2 51.2 51.2s51.2-22.923 51.2-51.2v-204.8c0-28.277-22.923-51.2-51.2-51.2s-51.2 22.923-51.2 51.2zM921.6-12.8v204.8c0 28.277 22.923 51.2 51.2 51.2s51.2-22.923 51.2-51.2v-204.8c0-28.277-22.923-51.2-51.2-51.2s-51.2 22.923-51.2 51.2zM614.4 499.2h358.4c28.277 0 51.2-22.923 51.2-51.2s-22.923-51.2-51.2-51.2h-358.4c-28.277 0-51.2 22.923-51.2 51.2s22.923 51.2 51.2 51.2zM935.773 412.769l-100.647 100.647c-19.995 19.995-19.995 52.413 0 72.408s52.413 19.995 72.408 0l100.647-100.647c19.995-19.995 19.995-52.413 0-72.408s-52.413-19.995-72.408 0zM835.129 382.668l100.647 100.647c19.995 19.995 52.413 19.995 72.408 0s19.995-52.413 0-72.408l-100.647-100.647c-19.995-19.995-52.413-19.995-72.408 0s-19.995 52.413 0 72.408z" />
<glyph unicode="&#xe934;" glyph-name="fixed" d="M921.6 243.2v449.024c0 28.277 22.923 51.2 51.2 51.2s51.2-22.923 51.2-51.2v-449.024c0-28.277-22.923-51.2-51.2-51.2s-51.2 22.923-51.2 51.2zM972.8 857.6h-921.6c-28.277 0-51.2 22.923-51.2 51.2s22.923 51.2 51.2 51.2h921.6c28.277 0 51.2-22.923 51.2-51.2s-22.923-51.2-51.2-51.2zM972.8-64h-921.6c-28.277 0-51.2 22.923-51.2 51.2s22.923 51.2 51.2 51.2h921.6c28.277 0 51.2-22.923 51.2-51.2s-22.923-51.2-51.2-51.2zM460.8 627.2h-179.2c-28.277 0-51.2 22.923-51.2 51.2s22.923 51.2 51.2 51.2h179.2c28.277 0 51.2-22.923 51.2-51.2s-22.923-51.2-51.2-51.2zM742.4 422.4h-460.8c-28.277 0-51.2 22.923-51.2 51.2s22.923 51.2 51.2 51.2h460.8c28.277 0 51.2-22.923 51.2-51.2s-22.923-51.2-51.2-51.2zM742.4 217.6h-460.8c-28.277 0-51.2 22.923-51.2 51.2s22.923 51.2 51.2 51.2h460.8c28.277 0 51.2-22.923 51.2-51.2s-22.923-51.2-51.2-51.2z" />
<glyph unicode="&#xe935;" glyph-name="flip-x" d="M409.6 960c-9.488-0.185-18.299-2.923-25.822-7.551l0.222 0.127c-16.716-4.058-30.002-15.909-35.977-31.394l-0.119-0.35-335.616-900.864c-7.531-8.764-12.159-20.214-12.288-32.741v-0.027c0-28.277 22.923-51.2 51.2-51.2v0h358.4c28.277 0 51.2 22.923 51.2 51.2v0 921.6c0 28.277-22.923 51.2-51.2 51.2v0zM358.4 656.64v-618.24h-230.4zM1011.712 19.968l-335.104 900.864c-6.188 15.949-19.683 27.84-36.263 31.677l-0.345 0.067c-7.301 4.501-16.113 7.239-25.549 7.423l-0.051 0.001c-28.277 0-51.2-22.923-51.2-51.2v0-921.6c0-28.277 22.923-51.2 51.2-51.2v0h358.4c28.277 0 51.2 22.923 51.2 51.2v0c-0.129 12.554-4.757 24.004-12.345 32.836l0.057-0.068z" />
<glyph unicode="&#xe936;" glyph-name="flip-y" d="M51.2 499.2h921.6c28.277 0 51.2 22.923 51.2 51.2v0c-0.185 9.488-2.923 18.299-7.551 25.822l0.127-0.222c-4.058 16.716-15.909 30.002-31.394 35.977l-0.35 0.119-900.864 335.616c-8.764 7.531-20.214 12.159-32.741 12.288h-0.027c-28.277 0-51.2-22.923-51.2-51.2v0-358.4c0-28.277 22.923-51.2 51.2-51.2v0zM102.4 601.6v230.4l618.24-230.4zM972.8 396.8h-921.6c-28.277 0-51.2-22.923-51.2-51.2v0-358.4c0-28.277 22.923-51.2 51.2-51.2v0c12.554 0.129 24.004 4.757 32.836 12.345l-0.068-0.057 900.864 335.104c15.949 6.188 27.84 19.683 31.677 36.263l0.067 0.345c4.501 7.301 7.239 16.113 7.423 25.549l0.001 0.051c0 28.277-22.923 51.2-51.2 51.2v0z" />
<glyph unicode="&#xe937;" glyph-name="font" d="M614.4 857.6h-204.8c-28.277 0-51.2 22.923-51.2 51.2s22.923 51.2 51.2 51.2h204.8c28.277 0 51.2-22.923 51.2-51.2s-22.923-51.2-51.2-51.2zM563.2 320v-332.8c0-28.277-22.923-51.2-51.2-51.2s-51.2 22.923-51.2 51.2v332.8c0 28.277 22.923 51.2 51.2 51.2s51.2-22.923 51.2-51.2zM691.2 499.2h-358.4c-28.277 0-51.2 22.923-51.2 51.2s22.923 51.2 51.2 51.2h358.4c28.277 0 51.2-22.923 51.2-51.2s-22.923-51.2-51.2-51.2zM512-64h-169.984c-28.277 0-51.2 22.923-51.2 51.2s22.923 51.2 51.2 51.2h169.984c28.277 0 51.2-22.923 51.2-51.2s-22.923-51.2-51.2-51.2zM726.091 512.785l-180.114-180.114c-19.995-19.995-52.413-19.995-72.408 0s-19.995 52.413 0 72.408l180.114 180.114c19.995 19.995 52.413 19.995 72.408 0s19.995-52.413 0-72.408zM972.8 294.4h-921.6c-28.277 0-51.2 22.923-51.2 51.2s22.923 51.2 51.2 51.2h921.6c28.277 0 51.2-22.923 51.2-51.2s-22.923-51.2-51.2-51.2zM102.4 729.6v-192c0-28.277-22.923-51.2-51.2-51.2s-51.2 22.923-51.2 51.2v192c0 28.277 22.923 51.2 51.2 51.2s51.2-22.923 51.2-51.2zM1024 729.6v-192c0-28.277-22.923-51.2-51.2-51.2s-51.2 22.923-51.2 51.2v192c0 28.277 22.923 51.2 51.2 51.2s51.2-22.923 51.2-51.2zM972.8 678.4h-921.6c-28.277 0-51.2 22.923-51.2 51.2s22.923 51.2 51.2 51.2h921.6c28.277 0 51.2-22.923 51.2-51.2s-22.923-51.2-51.2-51.2z" />
<glyph unicode="&#xe938;" glyph-name="fullscreen" d="M340.736 691.456l-165.888 166.144h19.968c28.277 0 51.2 22.923 51.2 51.2s-22.923 51.2-51.2 51.2v0h-143.616c-14.114-0.061-26.87-5.824-36.094-15.102l-0.002-0.002c-9.28-9.226-15.043-21.982-15.104-36.084v-143.372c0-28.277 22.923-51.2 51.2-51.2v0 0c28.277 0 51.2 22.923 51.2 51.2v0 19.712l166.144-165.888c8.895-7.652 20.555-12.311 33.303-12.311 28.277 0 51.2 22.923 51.2 51.2 0 12.749-4.659 24.409-12.368 33.371l0.057-0.067zM683.264 691.456l165.888 166.144h-19.968c-28.277 0-51.2 22.923-51.2 51.2s22.923 51.2 51.2 51.2v0h143.616c0.012 0 0.026 0 0.041 0 14.192 0 27.035-5.774 36.309-15.102l0.002-0.002c9.177-9.25 14.848-21.99 14.848-36.055 0-0.014 0-0.029 0-0.043v0.002-143.36c0-28.277-22.923-51.2-51.2-51.2v0 0c-28.277 0-51.2 22.923-51.2 51.2v0 19.712l-166.144-165.888c-8.895-7.652-20.555-12.311-33.303-12.311-28.277 0-51.2 22.923-51.2 51.2 0 12.749 4.659 24.409 12.368 33.371l-0.057-0.067zM340.736 204.544l-165.888-166.144h19.968c28.277 0 51.2-22.923 51.2-51.2s-22.923-51.2-51.2-51.2v0h-143.616c-0.012 0-0.026 0-0.041 0-14.192 0-27.035 5.774-36.309 15.102l-0.002 0.002c-9.177 9.25-14.848 21.99-14.848 36.055 0 0.014 0 0.029 0 0.043v-0.002 143.36c0 28.277 22.923 51.2 51.2 51.2v0 0c28.277 0 51.2-22.923 51.2-51.2v0-19.968l166.144 165.888c8.895 7.652 20.555 12.311 33.303 12.311 28.277 0 51.2-22.923 51.2-51.2 0-12.749-4.659-24.409-12.368-33.371l0.057 0.067zM683.264 204.544l165.888-166.144h-19.968c-28.277 0-51.2-22.923-51.2-51.2s22.923-51.2 51.2-51.2v0h143.616c28.277 0 51.2 22.923 51.2 51.2v0 143.36c0 28.277-22.923 51.2-51.2 51.2v0 0c-28.277 0-51.2-22.923-51.2-51.2v0-19.968l-166.144 165.888c-8.895 7.652-20.555 12.311-33.303 12.311-28.277 0-51.2-22.923-51.2-51.2 0-12.749 4.659-24.409 12.368-33.371l-0.057 0.067z" />
<glyph unicode="&#xe939;" glyph-name="grid-big" d="M51.877 960c28.228 0 51.111-22.883 51.111-51.111v-921.779c0-28.228-22.883-51.111-51.111-51.111s-51.111 22.883-51.111 51.111v921.779c0 28.228 22.883 51.111 51.111 51.111zM0 908.889c0 28.228 22.883 51.111 51.111 51.111h921.779c28.228 0 51.111-22.883 51.111-51.111s-22.883-51.111-51.111-51.111h-921.779c-28.228 0-51.111 22.883-51.111 51.111zM0-11.101c0 28.228 22.883 51.111 51.111 51.111h921.779c28.228 0 51.111-22.883 51.111-51.111s-22.883-51.111-51.111-51.111h-921.779c-28.228 0-51.111 22.883-51.111 51.111zM971.867 960c28.228 0 51.111-22.883 51.111-51.111v-921.779c0-28.228-22.883-51.111-51.111-51.111s-51.111 22.883-51.111 51.111v921.779c0 28.228 22.883 51.111 51.111 51.111z" />
<glyph unicode="&#xe93a;" glyph-name="grid-box" d="M204.8 704h-153.6c-28.277 0-51.2 22.923-51.2 51.2v153.6c0 28.277 22.923 51.2 51.2 51.2h153.6c28.277 0 51.2-22.923 51.2-51.2v-153.6c0-28.277-22.923-51.2-51.2-51.2zM972.8 704h-153.6c-28.277 0-51.2 22.923-51.2 51.2v153.6c0 28.277 22.923 51.2 51.2 51.2h153.6c28.277 0 51.2-22.923 51.2-51.2v-153.6c0-28.277-22.923-51.2-51.2-51.2zM588.8 704h-153.6c-28.277 0-51.2 22.923-51.2 51.2v153.6c0 28.277 22.923 51.2 51.2 51.2h153.6c28.277 0 51.2-22.923 51.2-51.2v-153.6c0-28.277-22.923-51.2-51.2-51.2zM204.8 320h-153.6c-28.277 0-51.2 22.923-51.2 51.2v153.6c0 28.277 22.923 51.2 51.2 51.2h153.6c28.277 0 51.2-22.923 51.2-51.2v-153.6c0-28.277-22.923-51.2-51.2-51.2zM972.8 320h-153.6c-28.277 0-51.2 22.923-51.2 51.2v153.6c0 28.277 22.923 51.2 51.2 51.2h153.6c28.277 0 51.2-22.923 51.2-51.2v-153.6c0-28.277-22.923-51.2-51.2-51.2zM588.8 320h-153.6c-28.277 0-51.2 22.923-51.2 51.2v153.6c0 28.277 22.923 51.2 51.2 51.2h153.6c28.277 0 51.2-22.923 51.2-51.2v-153.6c0-28.277-22.923-51.2-51.2-51.2zM204.8-64h-153.6c-28.277 0-51.2 22.923-51.2 51.2v153.6c0 28.277 22.923 51.2 51.2 51.2h153.6c28.277 0 51.2-22.923 51.2-51.2v-153.6c0-28.277-22.923-51.2-51.2-51.2zM972.8-64h-153.6c-28.277 0-51.2 22.923-51.2 51.2v153.6c0 28.277 22.923 51.2 51.2 51.2h153.6c28.277 0 51.2-22.923 51.2-51.2v-153.6c0-28.277-22.923-51.2-51.2-51.2zM588.8-64h-153.6c-28.277 0-51.2 22.923-51.2 51.2v153.6c0 28.277 22.923 51.2 51.2 51.2h153.6c28.277 0 51.2-22.923 51.2-51.2v-153.6c0-28.277-22.923-51.2-51.2-51.2z" />
<glyph unicode="&#xe93b;" glyph-name="grid-horizontal" d="M51.968 729.6c28.277 0 51.2-22.923 51.2-51.2v-460.8c0-28.277-22.923-51.2-51.2-51.2s-51.2 22.923-51.2 51.2v460.8c0 28.277 22.923 51.2 51.2 51.2zM0 678.4c0 28.277 22.923 51.2 51.2 51.2h923.392c28.277 0 51.2-22.923 51.2-51.2s-22.923-51.2-51.2-51.2h-923.392c-28.277 0-51.2 22.923-51.2 51.2zM0 217.6c0 28.277 22.923 51.2 51.2 51.2h923.392c28.277 0 51.2-22.923 51.2-51.2s-22.923-51.2-51.2-51.2h-923.392c-28.277 0-51.2 22.923-51.2 51.2zM973.568 729.6c28.277 0 51.2-22.923 51.2-51.2v-460.8c0-28.277-22.923-51.2-51.2-51.2s-51.2 22.923-51.2 51.2v460.8c0 28.277 22.923 51.2 51.2 51.2z" />
<glyph unicode="&#xe93c;" glyph-name="grid-line" d="M972.8 704h-921.6c-28.277 0-51.2 22.923-51.2 51.2v153.6c0 28.277 22.923 51.2 51.2 51.2h921.6c28.277 0 51.2-22.923 51.2-51.2v-153.6c0-28.277-22.923-51.2-51.2-51.2zM972.8-64h-921.6c-28.277 0-51.2 22.923-51.2 51.2v153.6c0 28.277 22.923 51.2 51.2 51.2h921.6c28.277 0 51.2-22.923 51.2-51.2v-153.6c0-28.277-22.923-51.2-51.2-51.2zM972.8 320h-921.6c-28.277 0-51.2 22.923-51.2 51.2v153.6c0 28.277 22.923 51.2 51.2 51.2h921.6c28.277 0 51.2-22.923 51.2-51.2v-153.6c0-28.277-22.923-51.2-51.2-51.2z" />
<glyph unicode="&#xe93d;" glyph-name="grid-line_1" d="M51.968 627.2c28.277 0 51.2-22.923 51.2-51.2v-257.792c0-28.277-22.923-51.2-51.2-51.2s-51.2 22.923-51.2 51.2v257.792c0 28.277 22.923 51.2 51.2 51.2zM0 576c0 28.277 22.923 51.2 51.2 51.2h923.392c28.277 0 51.2-22.923 51.2-51.2s-22.923-51.2-51.2-51.2h-923.392c-28.277 0-51.2 22.923-51.2 51.2zM0 317.952c0 28.277 22.923 51.2 51.2 51.2h923.392c28.277 0 51.2-22.923 51.2-51.2s-22.923-51.2-51.2-51.2h-923.392c-28.277 0-51.2 22.923-51.2 51.2zM973.568 627.2c28.277 0 51.2-22.923 51.2-51.2v-257.792c0-28.277-22.923-51.2-51.2-51.2s-51.2 22.923-51.2 51.2v257.792c0 28.277 22.923 51.2 51.2 51.2z" />
<glyph unicode="&#xe93e;" glyph-name="grid-list" d="M0-12.8v921.6c0 28.277 22.923 51.2 51.2 51.2h153.6c28.277 0 51.2-22.923 51.2-51.2v-921.6c0-28.277-22.923-51.2-51.2-51.2h-153.6c-28.277 0-51.2 22.923-51.2 51.2zM768-12.8v921.6c0 28.277 22.923 51.2 51.2 51.2h153.6c28.277 0 51.2-22.923 51.2-51.2v-921.6c0-28.277-22.923-51.2-51.2-51.2h-153.6c-28.277 0-51.2 22.923-51.2 51.2zM384-12.8v921.6c0 28.277 22.923 51.2 51.2 51.2h153.6c28.277 0 51.2-22.923 51.2-51.2v-921.6c0-28.277-22.923-51.2-51.2-51.2h-153.6c-28.277 0-51.2 22.923-51.2 51.2z" />
<glyph unicode="&#xe93f;" glyph-name="grid-small" d="M282.112 728.832c28.277 0 51.2-22.923 51.2-51.2v-460.8c0-28.277-22.923-51.2-51.2-51.2s-51.2 22.923-51.2 51.2v460.8c0 28.277 22.923 51.2 51.2 51.2zM230.144 677.632c0 28.277 22.923 51.2 51.2 51.2h461.568c28.277 0 51.2-22.923 51.2-51.2s-22.923-51.2-51.2-51.2h-461.568c-28.277 0-51.2 22.923-51.2 51.2zM230.144 216.832c0 28.277 22.923 51.2 51.2 51.2h461.568c28.277 0 51.2-22.923 51.2-51.2s-22.923-51.2-51.2-51.2h-461.568c-28.277 0-51.2 22.923-51.2 51.2zM742.912 728.832c28.277 0 51.2-22.923 51.2-51.2v-460.8c0-28.277-22.923-51.2-51.2-51.2s-51.2 22.923-51.2 51.2v460.8c0 28.277 22.923 51.2 51.2 51.2z" />
<glyph unicode="&#xe940;" glyph-name="grid-vertical" horiz-adv-x="562" d="M0-11.867c0 28.228 22.883 51.111 51.111 51.111h459.995c28.228 0 51.111-22.883 51.111-51.111s-22.883-51.111-51.111-51.111h-459.995c-28.228 0-51.111 22.883-51.111 51.111zM51.111-64c-28.228 0-51.111 22.883-51.111 51.111v921.779c0 28.228 22.883 51.111 51.111 51.111s51.111-22.883 51.111-51.111v-921.779c0-28.228-22.883-51.111-51.111-51.111zM511.106-64c-28.228 0-51.111 22.883-51.111 51.111v921.779c0 28.228 22.883 51.111 51.111 51.111s51.111-22.883 51.111-51.111v-921.779c0-28.228-22.883-51.111-51.111-51.111zM0 908.123c0 28.228 22.883 51.111 51.111 51.111h459.995c28.228 0 51.111-22.883 51.111-51.111s-22.883-51.111-51.111-51.111h-459.995c-28.228 0-51.111 22.883-51.111 51.111z" />
<glyph unicode="&#xe941;" glyph-name="group" d="M640 482.304c77.060 45.087 128 127.446 128 221.703 0 141.385-114.615 256-256 256s-256-114.615-256-256c0-94.257 50.94-176.616 126.792-221.048l1.208-0.654c-222.38-58.821-383.695-258.082-384-495.069v-0.035c0-28.277 22.923-51.2 51.2-51.2s51.2 22.923 51.2 51.2v0c0 226.216 183.384 409.6 409.6 409.6s409.6-183.384 409.6-409.6v0c0-28.277 22.923-51.2 51.2-51.2s51.2 22.923 51.2 51.2v0c-0.305 237.022-161.62 436.283-380.427 494.298l-3.573 0.806zM512 857.6c84.831 0 153.6-68.769 153.6-153.6s-68.769-153.6-153.6-153.6c-84.831 0-153.6 68.769-153.6 153.6v0c0 84.831 68.769 153.6 153.6 153.6v0zM998.4 678.4c-0.127 105.987-64.643 196.874-156.526 235.658l-1.682 0.63c-5.91 2.753-12.831 4.36-20.127 4.36-0.304 0-0.608-0.003-0.91-0.008l0.045 0.001c-28.277 0-51.2-22.923-51.2-51.2v0c0.113-20.067 11.751-37.388 28.627-45.69l0.301-0.134h1.792c56.481-23.542 95.459-78.305 95.459-142.171 0-55.497-29.432-104.12-73.539-131.111l-0.672-0.382c-22.169-7.816-37.771-28.584-37.771-52.996 0-30.963 25.101-56.064 56.064-56.064 0.229 0 0.458 0.001 0.686 0.004h-0.035c9.427 0.199 18.22 2.737 25.875 7.055l-0.275-0.143c7.154 1.272 15.39 2 23.796 2 2.706 0 5.394-0.075 8.062-0.224l-0.371 0.016c39.448-0.092 75.387-15.040 102.535-39.544l-0.135 0.12v120.064c-11.151 5.138-24.369 9.785-38.066 13.225l-1.614 0.343c24.868 38.553 39.657 85.643 39.68 136.186v0.006z" />
<glyph unicode="&#xe942;" glyph-name="gumai" d="M0 960v-512h512v512zM386.816 573.184h-261.632v261.632h261.632zM512 448h512v-512h-512v512zM596.992 879.616v-351.232h350.208v351.232zM893.696 582.912h-242.432v242.176h242.432zM107.008 322.304h297.984v-297.984h-297.984v297.984z" />
<glyph unicode="&#xe943;" glyph-name="h5" d="M409.6 960c28.277 0 51.2-22.923 51.2-51.2v-921.6c0-28.277-22.923-51.2-51.2-51.2s-51.2 22.923-51.2 51.2v921.6c0 28.277 22.923 51.2 51.2 51.2zM51.2 960c28.277 0 51.2-22.923 51.2-51.2v-921.6c0-28.277-22.923-51.2-51.2-51.2s-51.2 22.923-51.2 51.2v921.6c0 28.277 22.923 51.2 51.2 51.2zM614.4 960c28.277 0 51.2-22.923 51.2-51.2v-435.2c0-28.277-22.923-51.2-51.2-51.2s-51.2 22.923-51.2 51.2v435.2c0 28.277 22.923 51.2 51.2 51.2zM972.8 524.8c28.277 0 51.2-22.923 51.2-51.2v-486.4c0-28.277-22.923-51.2-51.2-51.2s-51.2 22.923-51.2 51.2v486.4c0 28.277 22.923 51.2 51.2 51.2zM0 473.6c0 28.277 22.923 51.2 51.2 51.2h358.4c28.277 0 51.2-22.923 51.2-51.2s-22.923-51.2-51.2-51.2h-358.4c-28.277 0-51.2 22.923-51.2 51.2zM563.2-12.8c0 28.277 22.923 51.2 51.2 51.2h358.4c28.277 0 51.2-22.923 51.2-51.2s-22.923-51.2-51.2-51.2h-358.4c-28.277 0-51.2 22.923-51.2 51.2zM563.2 908.8c0 28.277 22.923 51.2 51.2 51.2h358.4c28.277 0 51.2-22.923 51.2-51.2s-22.923-51.2-51.2-51.2h-358.4c-28.277 0-51.2 22.923-51.2 51.2zM563.2 473.6c0 28.277 22.923 51.2 51.2 51.2h358.4c28.277 0 51.2-22.923 51.2-51.2s-22.923-51.2-51.2-51.2h-358.4c-28.277 0-51.2 22.923-51.2 51.2z" />
<glyph unicode="&#xe944;" glyph-name="home" horiz-adv-x="1015" d="M145.917-12.606v439.042c0 28.527 23.125 51.652 51.652 51.652s51.652-23.125 51.652-51.652v-439.042c0-28.527-23.125-51.652-51.652-51.652s-51.652 23.125-51.652 51.652zM817.65-64.258h-619.823c-28.527 0-51.652 23.125-51.652 51.652s23.125 51.652 51.652 51.652h619.823c28.527 0 51.652-23.125 51.652-51.652s-23.125-51.652-51.652-51.652zM15.035 497.953l447.23 447.23c20.171 20.171 52.876 20.171 73.047 0s20.171-52.876 0-73.047l-447.23-447.23c-20.171-20.171-52.876-20.171-73.047 0s-20.171 52.876 0 73.047zM926.968 424.63l-447.23 447.23c-20.171 20.171-20.171 52.876 0 73.047s52.876 20.171 73.047 0l447.23-447.23c20.171-20.171 20.171-52.876 0-73.047s-52.876-20.171-73.047 0zM765.74-12.606v439.042c0 28.527 23.125 51.652 51.652 51.652s51.652-23.125 51.652-51.652v-439.042c0-28.527-23.125-51.652-51.652-51.652s-51.652 23.125-51.652 51.652z" />
<glyph unicode="&#xe945;" glyph-name="html" d="M51.2 960c28.277 0 51.2-22.923 51.2-51.2v-358.4c0-28.277-22.923-51.2-51.2-51.2s-51.2 22.923-51.2 51.2v358.4c0 28.277 22.923 51.2 51.2 51.2zM409.6 960c28.277 0 51.2-22.923 51.2-51.2v-358.4c0-28.277-22.923-51.2-51.2-51.2s-51.2 22.923-51.2 51.2v358.4c0 28.277 22.923 51.2 51.2 51.2zM409.6 396.8h-1.792c-0.55 0.018-1.197 0.028-1.846 0.028-23.54 0-43.921-13.52-53.804-33.218l-0.158-0.347-121.6-257.024-121.6 256c-9.845 20.599-30.515 34.575-54.449 34.575-0.478 0-0.955-0.006-1.43-0.017l0.071 0.001h-1.792c-28.277 0-51.2-22.923-51.2-51.2v0-358.4c0-28.277 22.923-51.2 51.2-51.2s51.2 22.923 51.2 51.2v0 131.072l70.4-148.48c10.050-20.227 30.569-33.883 54.278-33.883 1.169 0 2.329 0.033 3.481 0.099l-0.16-0.007c1.029-0.063 2.233-0.098 3.444-0.098 23.611 0 44.059 13.544 53.997 33.287l0.158 0.347 70.4 149.248v-131.584c0-28.277 22.923-51.2 51.2-51.2s51.2 22.923 51.2 51.2v0 358.4c0 28.277-22.923 51.2-51.2 51.2v0zM614.4 396.8c28.277 0 51.2-22.923 51.2-51.2v-358.4c0-28.277-22.923-51.2-51.2-51.2s-51.2 22.923-51.2 51.2v358.4c0 28.277 22.923 51.2 51.2 51.2zM563.2 908.8c0 28.277 22.923 51.2 51.2 51.2h358.4c28.277 0 51.2-22.923 51.2-51.2s-22.923-51.2-51.2-51.2h-358.4c-28.277 0-51.2 22.923-51.2 51.2zM563.2-12.8c0 28.277 22.923 51.2 51.2 51.2h358.4c28.277 0 51.2-22.923 51.2-51.2s-22.923-51.2-51.2-51.2h-358.4c-28.277 0-51.2 22.923-51.2 51.2zM793.6 499.2c-28.277 0-51.2 22.923-51.2 51.2v358.4c0 28.277 22.923 51.2 51.2 51.2s51.2-22.923 51.2-51.2v-358.4c0-28.277-22.923-51.2-51.2-51.2zM0 729.6c0 28.277 22.923 51.2 51.2 51.2h358.4c28.277 0 51.2-22.923 51.2-51.2s-22.923-51.2-51.2-51.2h-358.4c-28.277 0-51.2 22.923-51.2 51.2z" />
<glyph unicode="&#xe946;" glyph-name="image" d="M748.544 518.656c27.836 27.803 45.056 66.23 45.056 108.679 0 84.831-68.769 153.6-153.6 153.6s-153.6-68.769-153.6-153.6c0-42.449 17.219-80.876 45.054-108.678l0.002-0.002c27.789-27.756 66.162-44.921 108.544-44.921s80.755 17.165 108.546 44.922l-0.002-0.002zM603.904 663.296c9.276 9.33 22.119 15.104 36.311 15.104 28.277 0 51.2-22.923 51.2-51.2s-22.923-51.2-51.2-51.2c-14.192 0-27.035 5.774-36.309 15.102l-0.002 0.002c-9.201 9.255-14.889 22.011-14.889 36.096s5.687 26.842 14.891 36.098l-0.002-0.002zM1024 64v844.8c0 28.277-22.923 51.2-51.2 51.2v0h-921.6c-28.277 0-51.2-22.923-51.2-51.2v0 0-921.6s0 0 0-2.048c1.13-27.382 23.602-49.152 51.159-49.152 0.014 0 0.029 0 0.043 0h921.598c28.277 0 51.2 22.923 51.2 51.2v0 76.8zM102.4 857.6h819.2v-683.264l-248.576 210.432c-8.858 7.529-20.427 12.109-33.065 12.109-10.039 0-19.402-2.889-27.305-7.881l0.211 0.124-169.216-105.728-341.248 364.032zM102.4 497.664l295.424-315.136c9.368-9.995 22.651-16.222 37.39-16.222 10.050 0 19.424 2.896 27.333 7.898l-0.21-0.124 173.056 108.288 286.208-242.176v-1.792h-819.2z" />
<glyph unicode="&#xe947;" glyph-name="image2" d="M748.544 518.656c27.836 27.803 45.056 66.23 45.056 108.679 0 84.831-68.769 153.6-153.6 153.6s-153.6-68.769-153.6-153.6c0-42.449 17.219-80.876 45.054-108.678l0.002-0.002c27.789-27.756 66.162-44.921 108.544-44.921s80.755 17.165 108.546 44.922l-0.002-0.002zM603.904 663.296c9.276 9.33 22.119 15.104 36.311 15.104 28.277 0 51.2-22.923 51.2-51.2s-22.923-51.2-51.2-51.2c-14.192 0-27.035 5.774-36.309 15.102l-0.002 0.002c-9.201 9.255-14.889 22.011-14.889 36.096s5.687 26.842 14.891 36.098l-0.002-0.002zM1024 64v844.8c0 28.277-22.923 51.2-51.2 51.2v0h-921.6c-28.277 0-51.2-22.923-51.2-51.2v0 0-921.6s0 0 0-2.048c1.13-27.382 23.602-49.152 51.159-49.152 0.014 0 0.029 0 0.043 0h921.598c28.277 0 51.2 22.923 51.2 51.2v0 76.8zM102.4 857.6h819.2v-708.864s-352.768 97.792-483.584 173.056-335.616 325.632-335.616 325.632zM102.4 497.664c80.887-97.923 173.621-182.033 276.991-251.544l4.609-2.92c154.932-91.115 334.89-161.432 526.095-201.017l11.505-1.991v-1.792h-819.2z" />
<glyph unicode="&#xe948;" glyph-name="images" d="M742.4 526.080v227.84c0 14.845 12.035 26.88 26.88 26.88h48.64c14.845 0 26.88-12.035 26.88-26.88v-227.84c0-14.845-12.035-26.88-26.88-26.88h-48.64c-14.845 0-26.88 12.035-26.88 26.88zM563.2 526.080v227.84c0 14.845 12.035 26.88 26.88 26.88h48.64c14.845 0 26.88-12.035 26.88-26.88v-227.84c0-14.845-12.035-26.88-26.88-26.88h-48.64c-14.845 0-26.88 12.035-26.88 26.88zM817.92 678.4h-227.84c-14.845 0-26.88 12.035-26.88 26.88v48.64c0 14.845 12.035 26.88 26.88 26.88h227.84c14.845 0 26.88-12.035 26.88-26.88v-48.64c0-14.845-12.035-26.88-26.88-26.88zM817.92 499.2h-227.84c-14.845 0-26.88 12.035-26.88 26.88v48.64c0 14.845 12.035 26.88 26.88 26.88h227.84c14.845 0 26.88-12.035 26.88-26.88v-48.64c0-14.845-12.035-26.88-26.88-26.88zM384 526.080v227.84c0 14.845 12.035 26.88 26.88 26.88h48.64c14.845 0 26.88-12.035 26.88-26.88v-227.84c0-14.845-12.035-26.88-26.88-26.88h-48.64c-14.845 0-26.88 12.035-26.88 26.88zM1024 64v844.8c0 28.277-22.923 51.2-51.2 51.2v0h-921.6c-28.277 0-51.2-22.923-51.2-51.2v0 0-921.6c0-28.277 22.923-51.2 51.2-51.2v0h921.6c28.277 0 51.2 22.923 51.2 51.2v0 76.8zM102.4 857.6h819.2v-683.264l-248.576 210.432c-8.858 7.529-20.427 12.109-33.065 12.109-10.039 0-19.402-2.889-27.305-7.881l0.211 0.124-169.216-105.728-341.248 364.032zM102.4 497.664l295.424-315.136c9.368-9.995 22.651-16.222 37.39-16.222 10.050 0 19.424 2.896 27.333 7.898l-0.21-0.124 173.056 108.288 286.208-242.176v-1.792h-819.2z" />
<glyph unicode="&#xe949;" glyph-name="ipad" horiz-adv-x="819" d="M716.8 960h-614.4c-56.554 0-102.4-45.846-102.4-102.4v0-819.2c0-56.554 45.846-102.4 102.4-102.4v0h614.4c56.554 0 102.4 45.846 102.4 102.4v0 819.2c0 56.554-45.846 102.4-102.4 102.4v0zM409.6-12.8c-28.277 0-51.2 22.923-51.2 51.2s22.923 51.2 51.2 51.2c28.277 0 51.2-22.923 51.2-51.2v0c0-28.277-22.923-51.2-51.2-51.2v0zM716.8 192c0-28.277-22.923-51.2-51.2-51.2v0h-512c-28.277 0-51.2 22.923-51.2 51.2v0 614.4c0 28.277 22.923 51.2 51.2 51.2v0h512c28.277 0 51.2-22.923 51.2-51.2v0z" />
<glyph unicode="&#xe94a;" glyph-name="js" d="M409.6 960c28.277 0 51.2-22.923 51.2-51.2v-921.6c0-28.277-22.923-51.2-51.2-51.2s-51.2 22.923-51.2 51.2v921.6c0 28.277 22.923 51.2 51.2 51.2zM614.4 960c28.277 0 51.2-22.923 51.2-51.2v-435.2c0-28.277-22.923-51.2-51.2-51.2s-51.2 22.923-51.2 51.2v435.2c0 28.277 22.923 51.2 51.2 51.2zM972.8 524.8c28.277 0 51.2-22.923 51.2-51.2v-486.4c0-28.277-22.923-51.2-51.2-51.2s-51.2 22.923-51.2 51.2v486.4c0 28.277 22.923 51.2 51.2 51.2zM0-12.8c0 28.277 22.923 51.2 51.2 51.2h358.4c28.277 0 51.2-22.923 51.2-51.2s-22.923-51.2-51.2-51.2h-358.4c-28.277 0-51.2 22.923-51.2 51.2zM563.2-12.8c0 28.277 22.923 51.2 51.2 51.2h358.4c28.277 0 51.2-22.923 51.2-51.2s-22.923-51.2-51.2-51.2h-358.4c-28.277 0-51.2 22.923-51.2 51.2zM563.2 908.8c0 28.277 22.923 51.2 51.2 51.2h358.4c28.277 0 51.2-22.923 51.2-51.2s-22.923-51.2-51.2-51.2h-358.4c-28.277 0-51.2 22.923-51.2 51.2zM563.2 473.6c0 28.277 22.923 51.2 51.2 51.2h358.4c28.277 0 51.2-22.923 51.2-51.2s-22.923-51.2-51.2-51.2h-358.4c-28.277 0-51.2 22.923-51.2 51.2z" />
<glyph unicode="&#xe94b;" glyph-name="kalei" d="M1013.953 290.214c-45.579-200.577-220.954-348.547-431.417-351.634l-0.338-0.004c-4.877-1.624-10.491-2.56-16.325-2.56-9.106 0-17.679 2.282-25.178 6.306l0.285-0.14c5.099 25.021 11.499 46.676 19.517 67.528l-0.969-2.868c3.965 13.114 6.556 28.276 7.201 43.941l0.012 0.368c1.842 15.449 2.892 33.341 2.892 51.478 0 77.291-19.080 150.126-52.787 214.051l1.206-2.509c0 11.077 3.607 18.548 3.607 29.883 33.651 156.68 128.153 286.739 256.991 366.724l2.422 1.401c19.462 12.018 42.862 24.567 67.002 35.793l4.356 1.818c12.875 6.053 27.932 11.198 43.619 14.67l1.463 0.272c1.171-32.046 10.6-61.662 26.205-87.077l-0.444 0.778c7.471-11.335 22.67-30.14 22.67-30.14 48.699-73.949 77.685-164.635 77.685-262.090 0-33.977-3.523-67.131-10.224-99.117l0.549 3.129zM690.91 851.031c16.625-28.752 31.864-62.201 43.863-97.156l1.219-4.085c-131.158-81.431-225.567-211.482-258.481-364.387l-0.674-3.738c0-7.471-3.607-11.335-3.607-18.806-49.554 92.942-129.378 164.258-226.071 201.735l-2.945 1.004c32.915 123.96 103.117 228.351 197.694 303.334l1.181 0.903c47.097 37.839 101.985 68.465 161.568 89.018l3.818 1.145c32.071-31.308 59.487-67.182 81.244-106.615l1.191-2.354zM476.836 6.843c0.055-0.479 0.087-1.034 0.087-1.597 0-3.743-1.401-7.16-3.707-9.753l0.013 0.015c-3.864-18.548-11.335-37.353-15.199-51.522-31.167 3.403-59.165 8.75-86.342 16.099l3.906-0.9c-19.28 5.864-35.5 12.251-51.094 19.734l2.148-0.929c-146.052 63.247-250.494 197.775-270.020 358.498l-0.213 2.156c0.005 0.513 0.007 1.12 0.007 1.727 0 16.002-1.786 31.587-5.169 46.566l0.267-1.408c-6.758 61.457-25.044 117.382-52.683 167.42l1.161-2.292c6.559 0.272 14.256 0.427 21.989 0.427 21.384 0 42.492-1.184 63.261-3.491l-2.557 0.231c45.648-4.98 87.402-15.886 126.44-32.029l-3.045 1.115c101.448-40.468 182.359-114.457 230.694-208.009l1.155-2.458c34.036-61.066 54.075-133.958 54.075-211.53 0-16.687-0.927-33.157-2.733-49.362l0.18 1.994c-4.895-14.941-8.759-30.14-12.623-40.702z" />
<glyph unicode="&#xe94c;" glyph-name="key" horiz-adv-x="1037" d="M758.302 493.966c-0.117 0-0.256 0-0.394 0-61.291 0-117.927-19.936-163.775-53.677l0.765 0.537-40.386 40.917 30.024 29.227c8.574 9.402 13.825 21.964 13.825 35.752 0 29.348-23.791 53.14-53.14 53.14-13.722 0-26.229-5.201-35.657-13.739l0.045 0.040-30.555-30.555-57.391 58.985 83.163 82.101c9.629 9.618 15.585 22.912 15.585 37.596s-5.956 27.978-15.585 37.596l-0.001 0.001c-9.605 9.55-22.845 15.453-37.463 15.453s-27.858-5.903-37.466-15.455l0.003 0.003-84.492-83.429-56.594 58.985 117.439 117.439c9.629 9.618 15.585 22.912 15.585 37.596s-5.956 27.978-15.585 37.596l-0.001 0.001c-9.605 9.55-22.845 15.453-37.463 15.453s-27.858-5.903-37.466-15.455l-118.764-118.764-121.955 123.284c-9.618 9.629-22.912 15.585-37.596 15.585s-27.978-5.956-37.596-15.585l-0.001-0.001c-9.629-9.618-15.585-22.912-15.585-37.596s5.956-27.978 15.585-37.596l506.687-506.687c-26.485-41.866-42.205-92.829-42.205-147.462 0-153.931 124.786-278.717 278.717-278.717s278.717 124.786 278.717 278.717c0 153.931-124.786 278.717-278.717 278.717-0.108 0-0.216 0-0.324 0h0.017zM758.302 42.279c-0.315-0.002-0.687-0.003-1.060-0.003-95.382 0-172.704 77.322-172.704 172.704s77.322 172.704 172.704 172.704c95.007 0 172.096-76.716 172.7-171.58v-0.058c0.001-0.238 0.002-0.52 0.002-0.802 0-95.062-76.687-172.213-171.572-172.964h-0.071zM851.296 214.983c0-51.359-41.635-92.994-92.994-92.994s-92.994 41.635-92.994 92.994c0 51.359 41.635 92.994 92.994 92.994s92.994-41.635 92.994-92.994z" />
<glyph unicode="&#xe94d;" glyph-name="keyboard" d="M0 115.2v665.6c0 28.277 22.923 51.2 51.2 51.2s51.2-22.923 51.2-51.2v-665.6c0-28.277-22.923-51.2-51.2-51.2s-51.2 22.923-51.2 51.2zM921.6 115.2v665.6c0 28.277 22.923 51.2 51.2 51.2s51.2-22.923 51.2-51.2v-665.6c0-28.277-22.923-51.2-51.2-51.2s-51.2 22.923-51.2 51.2zM972.8 729.6h-921.6c-28.277 0-51.2 22.923-51.2 51.2s22.923 51.2 51.2 51.2h921.6c28.277 0 51.2-22.923 51.2-51.2s-22.923-51.2-51.2-51.2zM972.8 64h-921.6c-28.277 0-51.2 22.923-51.2 51.2s22.923 51.2 51.2 51.2h921.6c28.277 0 51.2-22.923 51.2-51.2s-22.923-51.2-51.2-51.2zM230.4 576h-25.6c-28.277 0-51.2 22.923-51.2 51.2s22.923 51.2 51.2 51.2h25.6c28.277 0 51.2-22.923 51.2-51.2s-22.923-51.2-51.2-51.2zM230.4 396.8h-25.6c-28.277 0-51.2 22.923-51.2 51.2s22.923 51.2 51.2 51.2h25.6c28.277 0 51.2-22.923 51.2-51.2s-22.923-51.2-51.2-51.2zM409.6 396.8h-25.6c-28.277 0-51.2 22.923-51.2 51.2s22.923 51.2 51.2 51.2h25.6c28.277 0 51.2-22.923 51.2-51.2s-22.923-51.2-51.2-51.2zM409.6 576h-25.6c-28.277 0-51.2 22.923-51.2 51.2s22.923 51.2 51.2 51.2h25.6c28.277 0 51.2-22.923 51.2-51.2s-22.923-51.2-51.2-51.2zM614.4 576h-25.6c-28.277 0-51.2 22.923-51.2 51.2s22.923 51.2 51.2 51.2h25.6c28.277 0 51.2-22.923 51.2-51.2s-22.923-51.2-51.2-51.2zM819.2 217.6h-25.6c-28.277 0-51.2 22.923-51.2 51.2s22.923 51.2 51.2 51.2h25.6c28.277 0 51.2-22.923 51.2-51.2s-22.923-51.2-51.2-51.2zM230.4 217.6h-25.6c-28.277 0-51.2 22.923-51.2 51.2s22.923 51.2 51.2 51.2h25.6c28.277 0 51.2-22.923 51.2-51.2s-22.923-51.2-51.2-51.2zM640 217.6h-256c-28.277 0-51.2 22.923-51.2 51.2s22.923 51.2 51.2 51.2h256c28.277 0 51.2-22.923 51.2-51.2s-22.923-51.2-51.2-51.2zM819.2 396.8h-230.4c-28.277 0-51.2 22.923-51.2 51.2s22.923 51.2 51.2 51.2h230.4c28.277 0 51.2-22.923 51.2-51.2s-22.923-51.2-51.2-51.2zM870.4 627.2v-179.2c0-28.277-22.923-51.2-51.2-51.2s-51.2 22.923-51.2 51.2v179.2c0 28.277 22.923 51.2 51.2 51.2s51.2-22.923 51.2-51.2z" />
<glyph unicode="&#xe94e;" glyph-name="like" d="M514.626-1.247c-8.574 0.007-16.353 3.41-22.064 8.936l0.009-0.008-412.488 412.751c-49.541 49.516-80.184 117.934-80.184 193.51s30.643 143.994 80.183 193.509l6.828 6.828c49.544 49.478 117.954 80.076 193.51 80.076s143.965-30.598 193.513-80.079l40.694-40.694 40.697 40.697c49.544 49.478 117.954 80.076 193.51 80.076s143.965-30.598 193.513-80.079l6.824-6.824c49.604-49.486 80.293-117.914 80.293-193.51s-30.689-144.024-80.288-193.505l-412.493-412.756c-5.67-5.522-13.424-8.927-21.974-8.927-0.029 0-0.057 0-0.086 0h0.004zM308.25 786.445c-0.161 0.001-0.352 0.001-0.542 0.001-51.141 0-97.404-20.887-130.722-54.597l-0.017-0.018-6.039-6.039c-72.73-72.73-46.474-190.884 26.256-262.564l317.44-318.228 317.965 317.965c35.184 35.184 80.87 81.92 80.87 131.282 0.001 0.161 0.001 0.352 0.001 0.542 0 51.141-20.887 97.404-54.597 130.722l-0.018 0.017-6.039 6.039c-33.336 33.727-79.599 54.614-130.74 54.614-0.191 0-0.381 0-0.572-0.001h0.029c-49.625 0-96.624-45.686-131.282-80.87l-55.138-55.138c-4.821-5.29-11.739-8.596-19.43-8.596s-14.609 3.306-19.411 8.575l-0.019 0.021-55.138 55.138c-36.234 36.234-83.233 81.92-132.857 81.92z" />
<glyph unicode="&#xe94f;" glyph-name="likes" d="M514.626-1.247c-8.574 0.007-16.353 3.41-22.064 8.936l0.009-0.008-412.488 412.751c-49.541 49.516-80.184 117.934-80.184 193.51s30.643 143.994 80.183 193.509l6.828 6.828c49.544 49.478 117.954 80.076 193.51 80.076s143.965-30.598 193.513-80.079l40.694-40.694 40.697 40.697c49.544 49.478 117.954 80.076 193.51 80.076s143.965-30.598 193.513-80.079l6.824-6.824c49.604-49.486 80.293-117.914 80.293-193.51s-30.689-144.024-80.288-193.505l-412.493-412.756c-5.67-5.522-13.424-8.927-21.974-8.927-0.029 0-0.057 0-0.086 0h0.004z" />
<glyph unicode="&#xe950;" glyph-name="line" d="M14.874 23.829l910.393 908.488c20.016 19.974 52.434 19.94 72.408-0.076s19.94-52.434-0.076-72.408l-910.393-908.488c-20.016-19.974-52.434-19.94-72.408 0.076s-19.94 52.434 0.076 72.408z" />
<glyph unicode="&#xe951;" glyph-name="lock-close" d="M1024 524.8c0 28.277-22.923 51.2-51.2 51.2v0h-153.6v179.2c0 113.108-91.692 204.8-204.8 204.8v0h-204.8c-113.108 0-204.8-91.692-204.8-204.8v0-179.2h-153.6c-28.277 0-51.2-22.923-51.2-51.2v0-537.6c0-28.277 22.923-51.2 51.2-51.2v0h921.6c28.277 0 51.2 22.923 51.2 51.2v0 0 537.6zM307.2 755.2c0 56.554 45.846 102.4 102.4 102.4v0h204.8c56.554 0 102.4-45.846 102.4-102.4v0-179.2h-409.6zM921.6 473.6v-435.2h-819.2v435.2zM614.4 294.4c0 0.107 0.001 0.234 0.001 0.361 0 56.554-45.846 102.4-102.4 102.4s-102.4-45.846-102.4-102.4c0-37.702 20.376-70.646 50.716-88.419l0.483-0.262v-39.68c0-28.277 22.923-51.2 51.2-51.2s51.2 22.923 51.2 51.2v0 39.68c30.722 17.975 51.063 50.757 51.2 88.3v0.020z" />
<glyph unicode="&#xe952;" glyph-name="lock-open" d="M652.8 332.8h-39.936c-18.035 30.824-50.978 51.2-88.681 51.2-56.554 0-102.4-45.846-102.4-102.4s45.846-102.4 102.4-102.4c37.703 0 70.646 20.376 88.419 50.717l0.262 0.483h39.936c28.277 0 51.2 22.923 51.2 51.2s-22.923 51.2-51.2 51.2v0zM1024 524.8c0 28.277-22.923 51.2-51.2 51.2v0h-665.6v179.2c0 56.554 45.846 102.4 102.4 102.4v0h204.8c56.554 0 102.4-45.846 102.4-102.4v0-25.6c0-28.277 22.923-51.2 51.2-51.2s51.2 22.923 51.2 51.2v0 25.6c0 113.108-91.692 204.8-204.8 204.8v0h-204.8c-113.108 0-204.8-91.692-204.8-204.8v0-179.2h-153.6c-28.277 0-51.2-22.923-51.2-51.2v0-537.6c0-28.277 22.923-51.2 51.2-51.2v0h921.6c28.277 0 51.2 22.923 51.2 51.2v0 0 537.6zM921.6 38.4h-819.2v435.2h819.2z" />
<glyph unicode="&#xe953;" glyph-name="material" d="M1024 908.8v0c-0.154 4.98-0.892 9.72-2.148 14.245l0.1-0.421c-6.226 21.691-25.856 37.307-49.144 37.376h-358.408c-21.048-0.018-39.122-12.734-46.976-30.9l-0.128-0.332c-2.544-5.892-4.045-12.748-4.096-19.949v-358.419c0-28.277 22.923-51.2 51.2-51.2v0h358.4c28.277 0 51.2 22.923 51.2 51.2v0 0zM665.6 857.6h256v-256h-256zM972.8 396.8h-921.6c-28.277 0-51.2-22.923-51.2-51.2v0 0-358.4c0.051-7.22 1.552-14.076 4.226-20.31l-0.13 0.342c7.982-18.498 26.056-31.214 47.102-31.232h921.602c28.277 0 51.2 22.923 51.2 51.2v0 358.4c0 28.277-22.923 51.2-51.2 51.2v0zM102.4 294.4h819.2v-256h-819.2zM230.4 499.2c127.246 0 230.4 103.154 230.4 230.4s-103.154 230.4-230.4 230.4c-127.246 0-230.4-103.154-230.4-230.4v0c0-127.246 103.154-230.4 230.4-230.4v0zM230.4 857.6c70.692 0 128-57.308 128-128s-57.308-128-128-128c-70.692 0-128 57.308-128 128v0c0 70.692 57.308 128 128 128v0z" />
<glyph unicode="&#xe954;" glyph-name="menu" d="M972.8 755.2h-921.6c-28.277 0-51.2 22.923-51.2 51.2s22.923 51.2 51.2 51.2h921.6c28.277 0 51.2-22.923 51.2-51.2s-22.923-51.2-51.2-51.2zM972.8 38.4h-921.6c-28.277 0-51.2 22.923-51.2 51.2s22.923 51.2 51.2 51.2h921.6c28.277 0 51.2-22.923 51.2-51.2s-22.923-51.2-51.2-51.2zM972.8 396.8h-921.6c-28.277 0-51.2 22.923-51.2 51.2s22.923 51.2 51.2 51.2h921.6c28.277 0 51.2-22.923 51.2-51.2s-22.923-51.2-51.2-51.2z" />
<glyph unicode="&#xe955;" glyph-name="mixia" d="M0 70.737v754.526c0 29.765 24.129 53.895 53.895 53.895s53.895-24.129 53.895-53.895v-754.526c0-29.765-24.129-53.895-53.895-53.895s-53.895 24.129-53.895 53.895zM911.629 70.737v754.526c0 29.765 24.129 53.895 53.895 53.895s53.895-24.129 53.895-53.895v-754.526c0-29.765-24.129-53.895-53.895-53.895s-53.895 24.129-53.895 53.895zM700 96.146l-573.826 574.027c-21.044 21.051-21.038 55.175 0.013 76.219s55.175 21.038 76.219-0.013l573.826-574.027c21.044-21.051 21.038-55.175-0.013-76.219s-55.175-21.038-76.219 0.013zM888.359 670.068l-549.823-549.631c-21.051-21.044-55.175-21.038-76.219 0.013s-21.038 55.175 0.013 76.219l549.823 549.631c21.051 21.044 55.175 21.038 76.219-0.013s21.038-55.175-0.013-76.219zM471.518 336.148l-451.215 451.215c-21.047 21.047-21.047 55.171 0 76.219s55.171 21.047 76.219 0l451.215-451.215c21.047-21.047 21.047-55.171 0-76.219s-55.171-21.047-76.219 0zM472.318 412.172l451.215 451.215c21.047 21.047 55.171 21.047 76.219 0s21.047-55.171 0-76.219l-451.215-451.215c-21.047-21.047-55.171-21.047-76.219 0s-21.047 55.171 0 76.219z" />
<glyph unicode="&#xe956;" glyph-name="mob" horiz-adv-x="666" d="M563.2 960h-460.8c-56.554 0-102.4-45.846-102.4-102.4v0-819.2c0-56.554 45.846-102.4 102.4-102.4v0h460.8c56.554 0 102.4 45.846 102.4 102.4v0 819.2c0 56.554-45.846 102.4-102.4 102.4v0zM332.8-12.8c-28.277 0-51.2 22.923-51.2 51.2s22.923 51.2 51.2 51.2c28.277 0 51.2-22.923 51.2-51.2v0c0-28.277-22.923-51.2-51.2-51.2v0zM563.2 192c0-28.277-22.923-51.2-51.2-51.2v0h-358.4c-28.277 0-51.2 22.923-51.2 51.2v0 614.4c0 28.277 22.923 51.2 51.2 51.2v0h358.4c28.277 0 51.2-22.923 51.2-51.2v0z" />
<glyph unicode="&#xe957;" glyph-name="more" d="M621.714 850.286c0-60.594-49.121-109.714-109.714-109.714s-109.714 49.121-109.714 109.714c0 60.594 49.121 109.714 109.714 109.714s109.714-49.121 109.714-109.714zM621.714 448c0-60.594-49.121-109.714-109.714-109.714s-109.714 49.121-109.714 109.714c0 60.594 49.121 109.714 109.714 109.714s109.714-49.121 109.714-109.714zM621.714 45.714c0-60.594-49.121-109.714-109.714-109.714s-109.714 49.121-109.714 109.714c0 60.594 49.121 109.714 109.714 109.714s109.714-49.121 109.714-109.714z" />
<glyph unicode="&#xe958;" glyph-name="mount" horiz-adv-x="1025" d="M0-12.8v657.664c0 28.277 22.923 51.2 51.2 51.2s51.2-22.923 51.2-51.2v-657.664c0-28.277-22.923-51.2-51.2-51.2s-51.2 22.923-51.2 51.2zM921.6-12.8v657.664c0 28.277 22.923 51.2 51.2 51.2s51.2-22.923 51.2-51.2v-657.664c0-28.277-22.923-51.2-51.2-51.2s-51.2 22.923-51.2 51.2zM471.041 416.379l-449.368 449.212c-19.998 19.991-20.004 52.409-0.013 72.408s52.409 20.004 72.408 0.013l449.368-449.212c19.998-19.991 20.004-52.409 0.013-72.408s-52.409-20.004-72.408-0.013zM1010.32 865.806l-457.979-457.979c-19.995-19.995-52.413-19.995-72.408 0s-19.995 52.413 0 72.408l457.979 457.979c19.995 19.995 52.413 19.995 72.408 0s19.995-52.413 0-72.408zM471.037 160.438l-449.368 449.212c-19.998 19.991-20.004 52.409-0.013 72.408s52.409 20.004 72.408 0.013l449.368-449.212c19.998-19.991 20.004-52.409 0.013-72.408s-52.409-20.004-72.408-0.013zM1010.293 609.833l-457.979-457.979c-19.995-19.995-52.413-19.995-72.408 0s-19.995 52.413 0 72.408l457.979 457.979c19.995 19.995 52.413 19.995 72.408 0s19.995-52.413 0-72.408zM972.8 857.6h-921.6c-28.277 0-51.2 22.923-51.2 51.2s22.923 51.2 51.2 51.2h921.6c28.277 0 51.2-22.923 51.2-51.2s-22.923-51.2-51.2-51.2zM972.8-64h-921.6c-28.277 0-51.2 22.923-51.2 51.2s22.923 51.2 51.2 51.2h921.6c28.277 0 51.2-22.923 51.2-51.2s-22.923-51.2-51.2-51.2z" />
<glyph unicode="&#xe959;" glyph-name="move" horiz-adv-x="1019" d="M307.2 499.2h-132.352l14.080 14.080c9.271 9.271 15.004 22.078 15.004 36.224 0 28.293-22.936 51.228-51.228 51.228-14.146 0-26.953-5.734-36.224-15.004l-100.608-100.608c-9.354-9.28-15.145-22.14-15.145-36.352s5.791-27.072 15.142-36.349l100.611-100.611c9.267-9.277 22.075-15.016 36.224-15.016s26.957 5.739 36.224 15.016v0c9.277 9.267 15.016 22.075 15.016 36.224s-5.739 26.957-15.016 36.224v0l-14.080 12.544h132.352c28.277 0 51.2 22.923 51.2 51.2s-22.923 51.2-51.2 51.2v0zM457.472 652.8v132.352l-14.080-14.080c-9.271-9.271-22.078-15.004-36.224-15.004-28.293 0-51.228 22.936-51.228 51.228 0 14.146 5.734 26.953 15.004 36.224l100.608 100.608c9.28 9.354 22.14 15.145 36.352 15.145s27.072-5.791 36.349-15.142l100.611-100.611c9.277-9.267 15.016-22.075 15.016-36.224s-5.739-26.957-15.016-36.224v0c-9.267-9.277-22.075-15.016-36.224-15.016s-26.957 5.739-36.224 15.016v0l-14.080 14.080v-132.352c0-28.277-22.923-51.2-51.2-51.2s-51.2 22.923-51.2 51.2v0zM559.872 243.2v-132.352l14.080 14.080c9.271 9.271 22.078 15.004 36.224 15.004 28.293 0 51.228-22.936 51.228-51.228 0-14.146-5.734-26.953-15.004-36.224l-100.608-100.608c-9.28-9.354-22.14-15.145-36.352-15.145s-27.072 5.791-36.349 15.142l-100.611 100.611c-9.277 9.267-15.016 22.075-15.016 36.224s5.739 26.957 15.016 36.224v0c9.267 9.277 22.075 15.016 36.224 15.016s26.957-5.739 36.224-15.016v0l14.080-14.080v132.352c0 28.277 22.923 51.2 51.2 51.2s51.2-22.923 51.2-51.2v0zM712.192 396.8h132.608l-14.080-14.080c-9.271-9.271-15.004-22.078-15.004-36.224 0-28.293 22.936-51.228 51.228-51.228 14.146 0 26.953 5.734 36.224 15.004v0l100.352 100.608c9.354 9.28 15.145 22.14 15.145 36.352s-5.791 27.072-15.142 36.349l-0.003 0.003-100.352 100.608c-9.267 9.277-22.075 15.016-36.224 15.016s-26.957-5.739-36.224-15.016v0c-9.277-9.267-15.016-22.075-15.016-36.224s5.739-26.957 15.016-36.224v0l14.080-12.544h-132.608c-28.277 0-51.2-22.923-51.2-51.2s22.923-51.2 51.2-51.2v0zM566.016 448c0-34.498-27.966-62.464-62.464-62.464s-62.464 27.966-62.464 62.464c0 34.498 27.966 62.464 62.464 62.464s62.464-27.966 62.464-62.464z" />
<glyph unicode="&#xe95a;" glyph-name="mu-bg" d="M844.8 960h-844.8v-844.8c0-98.969 80.231-179.2 179.2-179.2v0h844.8v844.8c0 98.969-80.231 179.2-179.2 179.2v0zM363.776 82.176h-43.264c-24.035 0-43.52 19.485-43.52 43.52v0 322.304h43.52c23.925-0.145 43.264-19.574 43.264-43.519 0 0 0-0.001 0-0.001v0zM790.016 619.776v0c0-0.076 0.001-0.166 0.001-0.256 0-24.035-19.485-43.52-43.52-43.52 0 0-0.001 0-0.001 0h-190.208v-54.272h192.768v-439.552h-43.52c-23.977 0.144-43.376 19.543-43.52 43.506v308.75h-105.728v-352.256h-44.288c-24.035 0-43.52 19.485-43.52 43.52v0 450.304h-234.496v43.008c0 24.035 19.485 43.52 43.52 43.52v0h192v151.296h42.496c23.925-0.145 43.264-19.574 43.264-43.519 0 0 0-0.001 0-0.001v0-107.776h233.728z" />
<glyph unicode="&#xe95b;" glyph-name="mu-font" horiz-adv-x="778" d="M451.389 748.5v150.633c-0.145 33.558-27.309 60.722-60.853 60.867h-60.881v-211.5h-268.787c-33.558-0.145-60.722-27.309-60.867-60.853v-60.114h329.654v-630.665c0.715-33.118 27.663-59.708 60.854-59.844h60.88v492.052h147.82v-432.208c0.715-33.118 27.663-59.708 60.854-59.844h60.88v613.786h-269.554v76.723h266.23c33.506 0.145 60.611 27.341 60.611 60.867 0 0 0 0 0 0.001v0 60.1zM120.967 448.511h-60.867v-451.644c0.715-33.118 27.663-59.708 60.854-59.844h60.88v451.644c-0.575 33.173-27.602 59.844-60.859 59.844-0.003 0-0.006 0-0.009 0v0z" />
<glyph unicode="&#xe95c;" glyph-name="mukezi" d="M741.744 487.385v0-22.581h122.355v-185.108c0.146-12.412 10.169-22.434 22.567-22.58h22.857v209.001h99.512c0.089-0.001 0.195-0.002 0.301-0.002 12.010 0 21.83 9.376 22.539 21.207l0.003 0.063v23.893h-267.29c-0.007 0-0.016 0-0.024 0-12.616 0-22.843-10.227-22.843-22.843 0-0.369 0.009-0.737 0.026-1.102l-0.002 0.052zM991.967 553.026v22.581h-97.411c-12.471 0-22.581-10.11-22.581-22.581v0-22.581h97.411c12.412 0.146 22.434 10.169 22.58 22.567v0.014zM764.587 639.934c0 0-0.001 0-0.002 0-12.524 0-22.693-10.078-22.841-22.567v-22.857h267.29c12.616 0 22.843 10.227 22.843 22.843v0 22.581zM371.003 464.804v-183.795c0.146-12.412 10.169-22.434 22.567-22.58h22.595v183.795h199.286v-83.495c0.148-12.502 10.318-22.581 22.842-22.581 0.001 0 0.001 0 0.002 0h22.58v151.237h-267.028c0 0-0.001 0-0.002 0-12.524 0-22.693-10.078-22.841-22.567v-0.014zM468.414 337.723h-22.055v-56.714c0.148-12.502 10.318-22.581 22.842-22.581 0.001 0 0.001 0 0.002 0h22.58v56.451c0 0.002 0 0.004 0 0.006 0 12.616-10.227 22.843-22.843 22.843-0.185 0-0.369-0.002-0.552-0.007l0.027 0.001zM586.306 390.498v22.581h-118.154c-12.412-0.146-22.434-10.169-22.58-22.567v-22.595h95.311v-109.489h97.149c12.412 0.146 22.434 10.169 22.58 22.567v22.595h-74.568zM168.041 617.091c0 0 0 0.001 0 0.002 0 12.524-10.078 22.693-22.567 22.841h-22.595v-78.769h-100.299c0 0-0.001 0-0.002 0-12.471 0-22.581-10.11-22.581-22.581 0-0.092 0.001-0.184 0.002-0.277v0.014-22.581h122.88v-234.732c0.146-12.412 10.169-22.434 22.567-22.58h22.595v183.795h55.138v-161.214c0.146-12.412 10.169-22.434 22.567-22.58h22.857v228.956h-100.562v28.357h99.249c11.961 0.709 21.408 10.522 21.53 22.568v22.593h-120.779zM512 644.923h-22.581v-21.53h-95.573c-12.502-0.148-22.581-10.318-22.581-22.842 0-0.001 0-0.001 0-0.002v0-22.581h118.416v-17.067h-95.836c-12.471 0-22.581-10.11-22.581-22.581v0 0-22.581h267.028c12.412 0.146 22.434 10.169 22.58 22.567v22.595h-126.031v17.067h103.45c12.412 0.146 22.434 10.169 22.58 22.567v22.857h-126.031c-0.844 11.993-10.725 21.417-22.832 21.53h-0.011zM45.161 449.575h-22.843v-168.566c0.148-12.502 10.318-22.581 22.842-22.581 0.001 0 0.001 0 0.002 0h22.58v168.566c-0.146 12.412-10.169 22.434-22.567 22.58h-0.014z" />
<glyph unicode="&#xe95d;" glyph-name="next" horiz-adv-x="1036" d="M51.809 495.016h932.558c28.613 0 51.809-23.196 51.809-51.809s-23.196-51.809-51.809-51.809h-932.558c-28.613 0-51.809 23.196-51.809 51.809s23.196 51.809 51.809 51.809zM492.3 24.23l454.266 454.266c20.233 20.233 53.036 20.233 73.269 0s20.233-53.036 0-73.269l-454.266-454.266c-20.233-20.233-53.036-20.233-73.269 0s-20.233 53.036 0 73.269zM565.335 944.805l454.266-454.266c20.233-20.233 20.233-53.036 0-73.269s-53.036-20.233-73.269 0l-454.266 454.266c-20.233 20.233-20.233 53.036 0 73.269s53.036 20.233 73.269 0z" />
<glyph unicode="&#xe95e;" glyph-name="normalscreen" d="M14.926 872.243l167.021-167.021h-20.073c-28.426 0-51.47-23.044-51.47-51.47s23.044-51.47 51.47-51.47v0h143.859c28.426 0 51.47 23.044 51.47 51.47v0s0 0 0 0v144.374c0 28.426-23.044 51.47-51.47 51.47v0 0c-28.426 0-51.47-23.044-51.47-51.47v0-20.073l-166.506 167.021c-9.316 9.326-22.192 15.096-36.415 15.096s-27.099-5.769-36.415-15.095v0c-9.326-9.316-15.096-22.192-15.096-36.415s5.769-27.099 15.095-36.415v0zM936.243 945.074l-166.764-167.021v20.073c0 28.426-23.044 51.47-51.47 51.47s-51.47-23.044-51.47-51.47v0-143.859c-0.002-0.164-0.003-0.358-0.003-0.553 0-14.14 5.702-26.949 14.933-36.252l-0.003 0.003c9.299-9.227 22.108-14.929 36.248-14.929 0.194 0 0.388 0.001 0.582 0.003h143.829c28.426 0 51.47 23.044 51.47 51.47v0 0c0 28.426-23.044 51.47-51.47 51.47v0h-19.816l166.764 167.021c9.326 9.316 15.096 22.192 15.096 36.415s-5.769 27.099-15.095 36.415v0c-9.303 9.25-22.127 14.967-36.287 14.967-14.287 0-27.215-5.821-36.54-15.221l-0.003-0.003zM14.926 23.757l167.021 166.764h-20.073c-28.426 0-51.47 23.044-51.47 51.47s23.044 51.47 51.47 51.47v0h143.859c0.164 0.002 0.358 0.003 0.553 0.003 14.14 0 26.949-5.702 36.252-14.933l-0.003 0.003c9.227-9.299 14.929-22.108 14.929-36.248 0-0.194-0.001-0.388-0.003-0.582v0.030s0 0 0 0v-143.859c0-28.426-23.044-51.47-51.47-51.47v0 0c-28.426 0-51.47 23.044-51.47 51.47v0 19.816l-166.764-166.764c-9.316-9.326-22.192-15.096-36.415-15.096s-27.099 5.769-36.415 15.095v0c-9.326 9.316-15.096 22.192-15.096 36.415s5.769 27.099 15.095 36.415v0zM936.243-49.074l-166.764 166.764v-19.816c0-28.426-23.044-51.47-51.47-51.47s-51.47 23.044-51.47 51.47v0 143.859c0 28.426 23.044 51.47 51.47 51.47v0h144.117c28.426 0 51.47-23.044 51.47-51.47v0 0c0-28.426-23.044-51.47-51.47-51.47v0h-19.816l166.764-166.764c9.319-9.319 15.084-22.194 15.084-36.415 0-28.442-23.057-51.499-51.499-51.499-14.221 0-27.096 5.764-36.415 15.084v0z" />
<glyph unicode="&#xe95f;" glyph-name="one" d="M51.2 499.2h921.6c28.277 0 51.2-22.923 51.2-51.2s-22.923-51.2-51.2-51.2h-921.6c-28.277 0-51.2 22.923-51.2 51.2s22.923 51.2 51.2 51.2z" />
<glyph unicode="&#xe960;" glyph-name="order1" d="M64 960h317.184c35.346 0 64-28.654 64-64v-896c0-35.346-28.654-64-64-64h-317.184c-35.346 0-64 28.654-64 64v896c0 35.346 28.654 64 64 64zM642.816 960h317.184c35.346 0 64-28.654 64-64v-317.184c0-35.346-28.654-64-64-64h-317.184c-35.346 0-64 28.654-64 64v317.184c0 35.346 28.654 64 64 64zM642.816 381.184h317.184c35.346 0 64-28.654 64-64v-317.184c0-35.346-28.654-64-64-64h-317.184c-35.346 0-64 28.654-64 64v317.184c0 35.346 28.654 64 64 64z" />
<glyph unicode="&#xe961;" glyph-name="order2" d="M64.256 960h317.952c35.488 0 64.256-28.768 64.256-64.256v-317.952c0-35.488-28.768-64.256-64.256-64.256h-317.952c-35.488 0-64.256 28.768-64.256 64.256v317.952c0 35.488 28.768 64.256 64.256 64.256zM64.256 382.464h317.952c35.488 0 64.256-28.768 64.256-64.256v-317.952c0-35.488-28.768-64.256-64.256-64.256h-317.952c-35.488 0-64.256 28.768-64.256 64.256v317.952c0 35.488 28.768 64.256 64.256 64.256zM641.792 960h317.952c35.488 0 64.256-28.768 64.256-64.256v-317.952c0-35.488-28.768-64.256-64.256-64.256h-317.952c-35.488 0-64.256 28.768-64.256 64.256v317.952c0 35.488 28.768 64.256 64.256 64.256zM641.792 382.464h317.952c35.488 0 64.256-28.768 64.256-64.256v-317.952c0-35.488-28.768-64.256-64.256-64.256h-317.952c-35.488 0-64.256 28.768-64.256 64.256v317.952c0 35.488 28.768 64.256 64.256 64.256z" />
</font>
</defs>
</svg>
